<?xml version="1.0" standalone="no"?>
<!DOCTYPE svg PUBLIC "-//W3C//DTD SVG 1.1//EN" "http://www.w3.org/Graphics/SVG/1.1/DTD/svg11.dtd" >
<svg xmlns="http://www.w3.org/2000/svg">
<metadata>
Created by FontForge 20120731 at Wed May 24 17:08:36 2017
 By admin
</metadata>
<defs>
<font id="iconfont" horiz-adv-x="1024" >
  <font-face 
    font-family="iconfont"
    font-weight="500"
    font-stretch="normal"
    units-per-em="1024"
    panose-1="2 0 6 3 0 0 0 0 0 0"
    ascent="896"
    descent="-128"
    x-height="792"
    bbox="-53 -223.516 1404 949"
    underline-thickness="0"
    underline-position="0"
    unicode-range="U+0078-E932"
  />
<missing-glyph 
 />
    <glyph glyph-name=".notdef" 
 />
    <glyph glyph-name=".notdef" 
 />
    <glyph glyph-name=".null" horiz-adv-x="0" 
 />
    <glyph glyph-name="nonmarkingreturn" horiz-adv-x="341" 
 />
    <glyph glyph-name="x" unicode="x" horiz-adv-x="1001" 
d="M281 543q-27 -1 -53 -1h-83q-18 0 -36.5 -6t-32.5 -18.5t-23 -32t-9 -45.5v-76h912v41q0 16 -0.5 30t-0.5 18q0 13 -5 29t-17 29.5t-31.5 22.5t-49.5 9h-133v-97h-438v97zM955 310v-52q0 -23 0.5 -52t0.5 -58t-10.5 -47.5t-26 -30t-33 -16t-31.5 -4.5q-14 -1 -29.5 -0.5
t-29.5 0.5h-32l-45 128h-439l-44 -128h-29h-34q-20 0 -45 1q-25 0 -41 9.5t-25.5 23t-13.5 29.5t-4 30v167h911zM163 247q-12 0 -21 -8.5t-9 -21.5t9 -21.5t21 -8.5q13 0 22 8.5t9 21.5t-9 21.5t-22 8.5zM316 123q-8 -26 -14 -48q-5 -19 -10.5 -37t-7.5 -25t-3 -15t1 -14.5
t9.5 -10.5t21.5 -4h37h67h81h80h64h36q23 0 34 12t2 38q-5 13 -9.5 30.5t-9.5 34.5q-5 19 -11 39h-368zM336 498v228q0 11 2.5 23t10 21.5t20.5 15.5t34 6h188q31 0 51.5 -14.5t20.5 -52.5v-227h-327z" />
    <glyph glyph-name="xiangshangshuangjiantou" unicode="&#xe69a;" horiz-adv-x="1000" 
d="M918 -2q0 -10 -9 -19l-42 -42q-8 -8 -19 -8t-19 8l-329 329l-329 -329q-8 -8 -19 -8t-19 8l-42 42q-9 9 -9 19.5t9 19.5l390 390q8 8 19 8t19 -8l390 -390q9 -9 9 -20v0zM918 320q0 -11 -9 -19l-42 -42q-8 -9 -19 -9t-19 9l-329 329l-329 -329q-8 -9 -19 -9t-19 9l-42 42
q-9 8 -9 19t9 19l390 390q8 8 19 8t19 -8l390 -390q9 -8 9 -19v0z" />
    <glyph glyph-name="erweima" unicode="&#xe6c1;" horiz-adv-x="1000" 
d="M0 800h1000v-1000h-1000v1000v0zM62 -13h63v63h63v-125h-126v-62h126h125v62v125v63h-188h-63v-126v0zM62 238h63h63v62h62v62h-62v-62h-63v62h-63v-124v0zM313 550v63v62v63h-63v-63h-62v-62h62v-63h-125v188h-63v-188v-62h63h125h63v62v0zM375 362h-62v-124h62h63v62
h-63v62v0zM563 613h-63v62h63v63h-63v-63h-62v-62v-63h62h63v63v0zM563 488h-63v-63h-62v-63h62v63h63v63v0zM938 550v125h-63v63h-62v-125h62v-63h-125v188h-63v-188v-62h63h125h63v62v0zM938 50h-63v63h63v62h-63v63h63v62h-63v62h-125v-62h-63v62h-124v-62h-63v-125h-62
v-188h62v-62h-62v-63h62h63v63h62v-63h125v63h63h62v62h63v63v0zM750 175h-125v63h188v-63h62v-63h-125v63v0zM813 300h62v-62h-62v62v0zM625 238h-63v62h63v-62v0zM687 -13v63v63h63v-63h63v-63h-63v-62h-125v62h62v0zM563 175h62v-63h-62v63v0zM625 -13h-63v63h63v-63v0z
M500 112h63v-62h-63v62v0zM500 112z" />
    <glyph glyph-name="dingyue" unicode="&#xe6cd;" horiz-adv-x="1000" 
d="M951 -120l1 20q0 116 -31 227t-86 204.5t-134 172.5t-173 134.5t-204.5 86t-227.5 30.5h-20v-139q150 0 286.5 -58.5t235 -157t156.5 -234.5t58 -286h139zM633 -120v20q0 109 -42.5 208.5t-114.5 171.5t-171.5 114.5t-208.5 42.5l-20 -1v-138q114 0 210 -56t152 -152.5
t56 -209.5h139zM76 -0.5q0 -49.5 35 -84.5t84.5 -35t84.5 35t35 84.5t-35 84.5t-84.5 35t-84.5 -35t-35 -84.5z" />
    <glyph glyph-name="sousuo" unicode="&#xe600;" horiz-adv-x="1000" 
d="M936 72l-198 203q-1 1 -3.5 2.5t-3.5 2.5q66 93 66 207q0 98 -48 181t-131 131t-180.5 48t-180.5 -48t-131 -131t-48 -180.5t48 -180.5t131 -131t181 -48q121 0 218 74q0 -1 1 -2.5t2 -1.5l198 -204q17 -16 40 -16q22 0 39 15q16 16 16 39t-16 40zM133 487.5
q0 125.5 89.5 215t215.5 89.5t215 -89.5t89 -215t-89 -215t-215 -89.5t-215.5 89.5t-89.5 215z" />
    <glyph glyph-name="shuaxin" unicode="&#xe601;" 
d="M702 148q-80 -56 -178 -55q-12 0 -25 1q-2 0 -5.5 0.5t-4.5 1.5q-13 1 -19 2q-1 1 -11 3q-12 3 -19 5l-8 3q-13 4 -21 7q0 1 -4 3q-14 6 -24 11h-1q-38 22 -69 53v1h-1l-18 20q-1 1 -2 2.5t-2 2.5q-66 84 -66 192h70q3 0 4.5 2.5t0.5 4.5l-119 180q-1 3 -4 3t-4 -3
l-119 -180q-2 -2 -0.5 -4.5t4.5 -2.5h71q0 -126 71 -230l0.5 -1t0.5 -2q3 -3 15 -19q0 -1 2 -3.5t3 -3.5q10 -12 23 -26q2 -2 3 -2q40 -41 90 -68l2 -2q13 -7 29 -14q1 -1 3.5 -2t4.5 -1q10 -5 25 -10q10 -3 13 -4q8 -3 23 -6q13 -3 16 -4q1 0 3 -0.5t3 -0.5q5 -1 23 -3
q1 -1 3.5 -1h4.5q22 -3 40 -3q125 0 228 74q17 11 20.5 31t-8 36.5t-31 20t-36.5 -8.5zM928 401q0 125 -71 228q0 1 -0.5 2t-0.5 2q-6 7 -18 23l-1 1l-1 1q-61 75 -149 114q-1 0 -2.5 1t-2.5 1q-12 5 -28 11q-1 0 -3 0.5t-4 1.5t-3 1q-10 3 -26 7q-12 2 -14 3q-1 0 -3 0.5
t-4 0.5q-3 1 -10 2t-9 1q-1 0 -5.5 0.5t-7.5 0.5q-13 2 -31 2h-3h-3h-0.5h-0.5q-126 0 -228 -73q-17 -11 -20.5 -31t8 -36.5t31 -20t36.5 8.5q79 56 176 55q14 0 27 -1q1 0 4 -0.5t4 -0.5q12 -2 21 -4q1 0 10 -2l20 -5q1 -1 3.5 -1.5t3.5 -0.5q12 -5 22 -9q1 0 1.5 -0.5
t1.5 -0.5q67 -29 114 -87h0.5t0.5 -1q69 -85 69 -194h-71q-3 0 -4.5 -3t0.5 -5l119 -180q1 -3 4 -3t4 3l119 180q1 2 -0.5 5t-4.5 3h-70v0z" />
    <glyph glyph-name="twitter" unicode="&#xe6d6;" 
d="M672 674q49 1 81.5 -13.5t63.5 -43.5q38 3 94 31q17 10 23 13q-21 -57 -59 -86q-17 -13 -20 -15v0q17 0 34.5 4.5t39.5 13t29 10.5v-1q-27 -43 -62 -71q-5 -4 -15.5 -12t-12.5 -11q0 -75 -9 -118q-35 -155 -125.5 -258t-234.5 -147q-54 -17 -125.5 -21t-133.5 10
q-63 16 -108 35q-28 12 -52 27q-10 6 -16 10l28 -2.5t30 0.5q8 1 26 2t27 3q67 15 110 40q3 2 12 7t14.5 8t12.5 8t11 10q-26 -1 -55 9q-82 29 -116 118q68 -8 82 3q-24 2 -61 25q-86 54 -86 157q6 -3 19 -9t38 -11q20 -4 25 -2v0q-5 5 -17 14t-17 15q-64 80 -41 167
q5 22 19 48q1 0 1 -0.5v-0.5q2 -4 9 -11l8 -8q21 -26 55 -52q52 -41 103 -66t121 -43q43 -10 82 -10q-5 19 -4.5 43t5.5 43q25 89 104 123q17 7 41 12q8 1 22 3v0z" />
    <glyph glyph-name="shezhi" unicode="&#xe69b;" horiz-adv-x="1064" 
d="M-49 -72zM1041 -72zM45 -41zM403 301q0 55 37.5 92.5t92.5 37.5t92.5 -37.5t37.5 -92.5t-37.5 -93t-92.5 -38t-92 38q-38 38 -38 93zM219 216q11 -39 33 -78l-86 -106l97 -97l106 86q37 -21 79 -34l14 -134h140l15 134q36 11 79 34l105 -86l98 97l-86 106q22 41 33 78
l134 15v140l-134 14q-10 32 -33 79l86 105l-98 99l-105 -87q-49 25 -79 34l-15 134h-140l-14 -134q-37 -11 -79 -34l-106 87l-97 -99l86 -105q-23 -45 -33 -79l-135 -14v-140zM1021 -41z" />
    <glyph glyph-name="fangkuai" unicode="&#xe602;" 
d="M325 34zM882 34zM236 19zM960 19zM64 107zM958 107zM81 18zM1023 18zM364 13zM384 515h257v-261h-257v261zM661 13z" />
    <glyph glyph-name="changjianwenti" unicode="&#xe6bd;" 
d="M917 748h-817q-16 0 -28 -11.5t-12 -27.5v-818q0 -16 12 -28t28 -12h817q16 0 27.5 12t11.5 28v818q0 16 -11.5 27.5t-27.5 11.5zM558 -18h-142v136h142v-136zM613 290q-64 -47 -64 -102v-26h-131v35q0 83 82 140q75 52 72 113q-3 79 -72 79q-78 0 -96 -117h-131
q29 206 227 203q206 -2 215 -159q4 -87 -102 -166z" />
    <glyph glyph-name="tushu" unicode="&#xe629;" 
d="M90 608q-10 0 -17 -7t-7 -17v-569q0 -11 8 -18t19 -6q54 6 121 6q155 0 241 -33q4 -2 8 -2q5 0 11 3q11 -4 21 -8q4 -2 8 -2q5 0 10 3q5 -3 10 -3q4 0 8 2q9 4 21 8q6 -3 11 -3q4 0 9 2q85 33 240 33q60 0 122 -6q10 -1 18 6t8 18v569q0 10 -7 17t-17 7t-17 -7t-7 -17
v-543q-30 2 -62 3v572q0 9 -5.5 16t-14.5 8q-27 3 -54 3q-51 0 -99.5 -9.5t-84 -24.5t-52 -24t-27.5 -16q-10 7 -27 16t-52 24t-84 24.5t-100 9.5q-27 0 -54 -3q-8 -1 -14 -8t-6 -16v-572q-32 -1 -62 -3v543q0 10 -7 17t-17 7zM545 534q106 61 231 61q15 0 30 -1v-542
q-17 1 -36 1q-119 0 -225 -40v521zM220 594q15 1 30 1q126 0 231 -61v-521q-106 40 -225 40q-18 0 -36 -1v542z" />
    <glyph glyph-name="changjianwenti1" unicode="&#xe6be;" 
d="M855 747h-683q-44 0 -75 -31t-31 -75v-683q0 -44 31 -75t75 -31h683q44 0 75 31t31 75v683q0 44 -31 75t-75 31zM561 32q0 -12 -9 -21t-21 -9h-48q-13 0 -22 9t-9 21v53q0 13 9 22t22 9h48q12 0 21 -9t9 -22v-53zM688 335q-29 -42 -89 -75q-45 -28 -43 -70v-2v-23
q0 -13 -9 -22t-22 -9h-37q-12 0 -21 9t-9 22v26q0 87 84 147h1q74 48 68 90v0q-3 30 -21 50t-64 24h-3q-45 0 -71 -23t-37 -72q-3 -14 -14.5 -20.5t-24.5 -2.5l-42 13q-12 4 -18 14.5t-3 21.5q19 81 71.5 123t135.5 42q9 0 17 -1h1q79 -4 125 -46q45 -43 52 -119
q5 -52 -27 -97z" />
    <glyph glyph-name="fenlei" unicode="&#xe640;" 
d="M591 318h315q22 0 38 15.5t16 38.5v321q0 22 -16 37.5t-38 15.5h-315q-22 0 -38 -15.5t-16 -37.5v-321q0 -23 16 -38.5t38 -15.5zM575 693q0 6 4.5 11t11.5 5h315q7 0 11.5 -5t4.5 -11v-321q0 -7 -4.5 -11.5t-11.5 -4.5h-315q-7 0 -11.5 4.5t-4.5 11.5v321zM591 -147h315
q22 0 38 15.5t16 37.5v322q0 22 -16 37.5t-38 15.5h-315q-22 0 -38 -15.5t-16 -37.5v-322q0 -22 16 -37.5t38 -15.5zM119 -147h316q22 0 37.5 15.5t15.5 37.5v322q0 22 -15.5 37.5t-37.5 15.5h-316q-22 0 -37.5 -15.5t-15.5 -37.5v-322q0 -22 15.5 -37.5t37.5 -15.5z
M103 228q0 6 5 10.5t11 4.5h316q6 0 11 -4.5t5 -10.5v-322q0 -6 -5 -11t-11 -5h-316q-6 0 -11 5t-5 11v322zM119 319h316q22 0 37.5 15.5t15.5 37.5v322q0 22 -15.5 37.5t-37.5 15.5h-316q-22 0 -37.5 -15.5t-15.5 -37.5v-322q0 -22 15.5 -37.5t37.5 -15.5zM103 694
q0 6 5 11t11 5h316q6 0 11 -5t5 -11v-322q0 -6 -5 -10.5t-11 -4.5h-316q-6 0 -11 4.5t-5 10.5v322z" />
    <glyph glyph-name="duihua" unicode="&#xe641;" 
d="M870 732h-716q-37 0 -63.5 -24t-26.5 -60v-580q0 -36 26.5 -62t63.5 -26h51q-39 -96 -80 -116q9 1 24.5 3t58.5 10.5t80 20t78.5 33.5t65.5 49h438q37 0 63.5 26t26.5 62v580q0 36 -26.5 60t-63.5 24z" />
    <glyph glyph-name="fenxiang" unicode="&#xe642;" 
d="M768 89q0 -21 -12 -41t-30 -20h-469q-18 0 -33.5 20.5t-15.5 40.5v281q0 19 14.5 30.5t34.5 11.5h48l108 144h-296q-21 0 -37 -13t-16 -32v-562q0 -19 16.5 -34t36.5 -15h749q20 0 33 14.5t13 34.5v341l-144 -123v-78zM375 175q1 -2 2 -6t1 -5q31 90 95.5 151t147.5 77
q9 1 26.5 2.5t28 1.5t12.5 -1v-159h38l234 244l-234 220h-38v-136l-10 -0.5t-24.5 -1.5t-21.5 -2q-85 -16 -150 -73t-94 -140t-13 -172z" />
    <glyph glyph-name="yinle" unicode="&#xe643;" 
d="M903 747l-559 -126q-4 -1 -11 -3.5t-19 -13t-12 -25.5v-568q-33 10 -69 10q-64 0 -109 -24.5t-45 -59.5t45 -59.5t108.5 -24.5t108.5 24.5t45 59.5v445l475 104v-349q-33 9 -70 9q-63 0 -108 -24.5t-45 -59t45 -59t108.5 -24.5t108.5 24.5t45 58.5v643q0 17 -12 29.5
t-30 12.5v0zM903 747z" />
    <glyph glyph-name="music" unicode="&#xe644;" 
d="M900 345q-8 1 -14.5 11t-10.5 37q-5 44 -29 64.5t-74 29.5q-53 11 -93 41q-40 31 -67 58q-26 24 -40 17t-14 -25v-153q0 -63 -0.5 -136t-0.5 -138v-178q1 -27 -9 -60t-37 -62q-28 -29 -73 -50t-113 -24q-69 -4 -125 23q-55 27 -85.5 68t-30 89.5t44 91.5t93.5 59.5
t97 18.5t83.5 -6t54.5 -15v317q0 133 1 299q0 32 17.5 53t46.5 24q24 3 40 -9.5t32 -35.5t40 -52q24 -30 65 -58q35 -25 61 -37q24 -10 49 -20q23 -10 45 -23q22 -14 49 -44q27 -29 33 -60.5t0.5 -57t-17 -42t-19.5 -15.5v0z" />
    <glyph glyph-name="shijian" unicode="&#xe645;" 
d="M517 769q-92 0 -175.5 -34.5t-148.5 -99.5t-99.5 -148.5t-34.5 -175.5t34.5 -176t99.5 -149t148.5 -99.5t175.5 -34.5t176 34.5t149 99.5t99.5 149t34.5 176t-34.5 175.5t-99.5 148.5t-149 99.5t-176 34.5zM801 27q-57 -57 -130 -87.5t-153.5 -30.5t-154 30.5t-130 87.5
t-87 130t-30.5 153.5t30.5 154t87 130t130 87t154 30.5t153.5 -30.5t130 -87t87.5 -130t30.5 -154t-30.5 -153.5t-87.5 -130zM525 266v296q0 12 -8.5 20.5t-20.5 8.5t-20.5 -8.5t-8.5 -20.5v-315q0 -19 18 -27zM747 247q0 -14 -9.5 -23t-22.5 -9h-214q-13 0 -22.5 9t-9.5 23
v0q0 13 9.5 22.5t22.5 9.5h214q13 0 22.5 -9.5t9.5 -22.5v0z" />
    <glyph glyph-name="gerenxinxi" unicode="&#xe69c;" 
d="M512 654h337q62 0 94 -48q16 -25 16 -52q2 -197 1 -507q0 -37 -25.5 -65t-62.5 -33q-14 -2 -29 -2h-221h-221h-221q-65 0 -92 38q-23 32 -23 58q-2 202 -1 514q0 40 32 68.5t77 28.5h339zM509 544v1q-249 0 -284 -1q-23 0 -36.5 -12t-13.5 -34q-1 -274 0 -438
q1 -35 12 -46t45 -11q290 -1 543 0q38 0 56 18.5t18 57.5q1 210 0 398q-1 44 -12.5 55.5t-55.5 11.5h-272zM335 250q-45 57 -46 109.5t42 92.5q42 38 96.5 38t96.5 -39q43 -39 42 -91t-46 -111q112 -68 101 -192h-55q9 83 -48 130q-44 34 -99 31q-59 -3 -99 -47.5
t-31 -113.5h-53q-15 46 11 97t88 96zM428 435q-34 0 -58.5 -23.5t-25.5 -56.5q0 -33 24 -57.5t58 -24.5q35 -1 60 22.5t26 57.5q0 33 -24.5 57t-59.5 25zM627 275v50h164v-50h-164zM627 384v52h109v-52h-109z" />
    <glyph glyph-name="daochu" unicode="&#xe603;" 
d="M744 582q-2 4 -7.5 9t-22 14t-32.5 9l-88 -1l-102 104l-102 -104h-80q-37 -1 -64 -30q-4 -4 -10.5 -12t-26 -31t-37 -44.5t-39.5 -49t-37.5 -49t-26 -39.5t-10.5 -25v-218q0 -26 18.5 -43.5t43.5 -17.5h779q26 0 44 17.5t18 43.5v218q0 32 -210 242zM636 334
q-13 0 -20.5 -7.5t-9.5 -15.5l-1 -7v-64q0 -8 -3 -14t-7.5 -9t-9.5 -5t-8 -3l-3 -1h-111q-9 0 -15 3.5t-9 8t-5 9t-2 7.5v4v58q0 16 -8 25t-15 10l-8 1h-221l93 126q1 3 3.5 8.5t11 14t18.5 8.5h66l-64 93h53l-1 -1h101v-128q1 -1 0 -8.5t6 -16.5t22 -9q2 0 4 -0.5t8.5 1
t11 4t8.5 9.5t4 18v130h48v0h108l-46 -92h80q16 -9 29 -31l96 -126h-204z" />
    <glyph glyph-name="ttpodicon" unicode="&#xe62a;" 
d="M509.5 750q-90.5 0 -173.5 -35.5t-143 -95.5t-95.5 -143t-35.5 -173.5t35.5 -173.5t95.5 -143t143 -95.5t173.5 -35.5t173.5 35.5t143 95.5t95.5 143t35.5 173.5t-35.5 173.5t-95.5 143t-143 95.5t-173.5 35.5zM509.5 -95q-107.5 0 -199 53.5t-145 145t-53.5 199
t53.5 199t145 145t199 53.5t199 -53.5t145 -145t53.5 -199t-53.5 -199t-145 -145t-199 -53.5zM510 436q-55 0 -94.5 -39t-39.5 -94.5t39.5 -94.5t94.5 -39t94 39t39 94.5t-39 94.5t-94 39zM509.5 193q-45.5 0 -77.5 32t-32 77.5t32 77.5t77.5 32t77.5 -32t32 -77.5
t-32 -77.5t-77.5 -32zM510 635q-7 0 -11.5 -4.5t-4.5 -11.5t4.5 -11.5t11.5 -4.5q124 0 212.5 -88t88.5 -213q0 -6 4.5 -10.5t11 -4.5t11 4.5t4.5 10.5q0 91 -44.5 167.5t-121 121t-166.5 44.5z" />
    <glyph glyph-name="shangchuan" unicode="&#xe604;" 
d="M741 369zM896 192l-8 16l-112 224q-8 16 -26 16h-93q-7 0 -12 -5.5t-5 -12.5v-29q0 -8 5 -13t12 -5h30q17 0 25 -15l80 -161q3 -7 0 -11.5t-10 -4.5h-126q-8 0 -13 -5t-5 -12v-91q0 -7 -5 -12.5t-12 -5.5h-219q-7 0 -12.5 5.5t-5.5 12.5v91q0 7 -5 12t-12 5h-129
q-7 0 -10 4.5t1 11.5l83 161q8 15 25 15h29q7 0 12 5.5t5 12.5v29q0 7 -5 12t-12 5h-93q-17 0 -25 -15l-113 -225q-2 -4 -3.5 -7.5t-2.5 -5.5l-1 -2v-18v-158q0 -7 5 -12t12 -5h734q7 0 12 5t5 12v159v17zM353 572h95v-315h128v315h101q7 0 8.5 4t-3.5 9l-158 179
q-5 5 -11.5 5t-11.5 -5l-155 -179q-4 -5 -2.5 -9t9.5 -4z" />
    <glyph glyph-name="fenxiang1" unicode="&#xe646;" 
d="M770 222q-38 0 -71.5 -16.5t-55.5 -46.5l-249 125q7 21 7 43q0 25 -8 48l248 124q22 -31 56 -48.5t73 -17.5q65 0 111.5 46.5t46.5 112t-46.5 111.5t-112 46t-112 -46t-46.5 -112q0 -9 1 -18l-261 -131q-46 44 -109 44q-65 0 -111.5 -46.5t-46.5 -112t46.5 -112
t112 -46.5t111.5 47l259 -130q-2 -11 -2 -22q0 -65 46.5 -111.5t112 -46.5t112 46.5t46.5 112t-46.5 111.5t-111.5 46v0z" />
    <glyph glyph-name="facebook" unicode="&#xe6d7;" 
d="M761 487h-164v104q0 26 13.5 37t31.5 11h116v172l-159 1q-51 0 -90.5 -14t-63 -36t-38.5 -51t-20.5 -55.5t-5.5 -53.5v-115h-102v-177h102v-502h216v502h145z" />
    <glyph glyph-name="fenlei1" unicode="&#xe647;" 
d="M125 687h341v-341h-341v341zM568 687h330v-341h-330v341zM125 242h341v-329h-341v329zM568 242h330v-329h-330v329z" />
    <glyph glyph-name="101" unicode="&#xe648;" 
d="M690 242q62 44 98 111.5t36 145.5q0 129 -91.5 220.5t-221 91.5t-221 -91.5t-91.5 -220.5q0 -78 36 -145.5t98 -110.5q-139 -55 -225.5 -179t-86.5 -277v0h88v0v1q0 153 102 266.5t252 131.5q56 5 101 -1h3l1 -1q147 -21 245.5 -133.5t98.5 -262.5v-1v0h89v0
q0 153 -86 277t-225 178zM512 265q-97 0 -165.5 68.5t-68.5 165.5t68.5 165.5t165.5 68.5t165.5 -68.5t68.5 -165.5t-68.5 -165.5t-165.5 -68.5z" />
    <glyph glyph-name="shezhi1" unicode="&#xe69d;" 
d="M946 322q0 16 -8.5 27.5t-22.5 13.5q-8 2 -28.5 5t-37.5 6t-20 4q-5 0 -10 4t-6 7q0 2 -12 30q-5 12 5 25q5 8 48 68q7 8 6 23t-11 25l-56 56q-7 7 -20.5 7t-22.5 -7l-72 -51q-1 0 -3 -1t-7.5 -2.5t-9.5 1.5l-34 14q-7 5 -10 20q0 4 -14 82q-2 13 -13 21.5t-24 8.5h-75
q-12 0 -22.5 -9.5t-12.5 -20.5l-14 -84q-1 -7 -3.5 -11.5t-5.5 -5.5l-2 -2l-30 -12q-8 -3 -13.5 -1.5t-17 9t-62.5 43.5q-15 9 -28 7.5t-22 -11t-51 -50.5q-10 -11 -9.5 -26t10.5 -29q11 -15 41 -58q12 -17 9 -27q-2 -6 -12 -28q-3 -8 -8.5 -11t-19.5 -6q-9 -2 -39 -7
t-38 -6q-14 -3 -22.5 -14.5t-8.5 -27.5v-65q0 -35 39 -42q23 -4 74 -12q16 -3 22 -16l9 -22q4 -9 3.5 -15t-8.5 -17q-9 -13 -46 -65q-8 -13 -6 -26.5t11 -22.5q10 -11 49 -49q11 -11 25.5 -12t28.5 8q15 11 65 47q13 9 28 3q5 -2 22 -9q13 -6 17 -24q2 -11 13 -79
q6 -33 41 -33h62q39 0 45 31l14 84q2 13 14 18q5 3 27 12q12 6 27 -6q7 -4 64 -45q28 -19 52 5q11 10 49 48q12 15 12 27.5t-7 23.5t-50 71q-8 11 -2 24q2 5 12 25q5 11 18 13q9 2 84 15q31 5 31 40v66zM909 255q0 -10 -9 -12q-1 0 -12 -2t-23.5 -4t-26 -4.5t-20.5 -3.5
q-29 -5 -38 -28q-4 -8 -11 -27q-10 -25 3 -42q1 -3 14 -21t23.5 -32.5t12.5 -17.5q6 -10 -1 -17l-13 -13l-22 -22l-13 -13q-8 -7 -19 0q-1 1 -13 9t-26 18t-25 18q-23 16 -49 6q-21 -9 -22 -9q-27 -11 -34 -49q-1 -7 -4 -24.5t-5 -30t-3 -15.5q-1 -11 -13 -11h-65
q-11 0 -15 12q-4 13 -12 74q-2 14 -9.5 25.5t-15.5 15.5q-25 10 -28 11q-29 12 -51 -4q-3 -2 -19.5 -14t-29.5 -21.5t-16 -11.5q-11 -7 -18 0l-47 47q-8 8 0 20l41 58q21 29 10 54q-3 6 -4.5 9.5t-2 5t-2 4.5t-4.5 10q-9 21 -38 26q-76 14 -77 14q-12 2 -12 14v66
q0 11 13 13q1 0 15.5 2.5t31.5 5.5t26 5q34 5 43 29l11 27q11 25 -7 50q-44 60 -45 62q-7 11 1 19l13 13l22 22l12 12q9 8 18 1q53 -38 64 -46q24 -17 49 -6q19 8 27 11q24 9 29 40q12 74 12.5 77.5t4 7t7.5 3.5h70q10 0 11 -9l4 -21t7 -40.5t4 -24.5q2 -9 10 -19.5
t16 -13.5q30 -13 31 -13q8 -3 19.5 -2t16.5 4q73 51 76 53q8 6 17 -3l13.5 -13.5l22.5 -22.5l12 -12q6 -6 1 -14q-1 0 -7.5 -9.5t-13.5 -19.5t-15 -21.5t-12 -16.5q-16 -23 -5 -49l9 -22q12 -28 34 -32q83 -13 84 -14q12 -1 12 -13l-0.5 -18t-0.5 -33t1 -17zM527 489
q-83 0 -141.5 -58.5t-58.5 -141.5t58.5 -141.5t141.5 -58.5t141.5 58.5t58.5 141.5t-58.5 141.5t-141.5 58.5zM526.5 124q-68.5 0 -116.5 48.5t-48 117t48 116.5t116.5 48t117 -48t48.5 -116.5t-48.5 -117t-117 -48.5z" />
    <glyph glyph-name="unie614" unicode="&#xe605;" 
d="M-53 949v0v0zM789 447v163q0 55 -21.5 105t-58 86.5t-86 58t-104.5 21.5h-10q-113 0 -192.5 -79.5t-79.5 -191.5v-163h-95v-559h745v559h-98v0zM599 -10h-169l41 181q-41 24 -41 73q0 34 25 59t60 25t59.5 -25t24.5 -59q0 -49 -42 -73zM653 447h-280v163q0 55 39.5 95
t96.5 40h10q27 0 52 -10.5t43 -29t28.5 -43t10.5 -52.5v-163z" />
    <glyph glyph-name="zhuce" unicode="&#xe649;" 
d="M793 -173q-48 0 -90.5 18t-74 50t-50 74.5t-18.5 90t18.5 90t50 73.5t74 49.5t90 18.5t90 -18.5t74 -49.5t49.5 -73.5t18 -90t-18 -90t-49.5 -74.5t-74 -50t-89.5 -18v0zM907 97h-84v78q0 16 -10 27.5t-26 11.5t-25 -11.5t-9 -27.5v-78h-74q-15 0 -26.5 -11.5
t-11.5 -27.5t11.5 -23.5t26.5 -7.5h74v-81q0 -16 9 -27t25 -11t26 11t10 27v81h84v-3q16 0 27.5 9t11.5 25t-11.5 27.5t-27.5 11.5v0zM627 379q-4 -18 -9 -33q-4 -12 -11 -25t-15 -20q-10 -8 -14 -17t-7 -18.5t-6 -20t-11 -20.5q-26 -34 -39 -66t-18.5 -61t-3 -58t9.5 -56
q4 -21 13 -43t26.5 -45t45 -45.5t68.5 -42.5q-28 -6 -64 -10q-30 -4 -75 -7q-45 -2 -103 -2q-29 0 -68 2t-80.5 5.5t-82 8t-73.5 9.5t-56.5 11t-29.5 10q-10 9 -15.5 50.5t3.5 108.5q6 37 30 57t57 31t68.5 21t63.5 27q21 13 32.5 25t16 24.5t4.5 26t-1 29.5
q-2 24 -16.5 37.5t-30.5 27.5q-9 7 -15.5 20.5t-11.5 25.5q-6 15 -9 33q-8 2 -15 7q-5 4 -12 13.5t-13 27.5q-5 17 -3.5 31.5t6.5 24.5q4 13 12 22q0 38 5 77q4 33 13.5 70.5t31.5 66.5q20 28 43.5 46.5t48.5 28.5t50 14t47 4q30 0 57 -7t50.5 -18t41.5 -25.5t29 -28.5
q26 -33 38 -73t18 -75q5 -40 4 -81q7 -6 12 -14q4 -7 6.5 -18t-0.5 -28q-2 -22 -8.5 -34.5t-14.5 -19.5q-9 -8 -20 -11v0z" />
    <glyph glyph-name="ordinarydownload" unicode="&#xe606;" 
d="M515 156l-244 339h133v276h221v-276h134l-244 -339v0zM903 245h-85v-162h-611v162h-86v-248h782v248v0z" />
    <glyph glyph-name="fenxiang2" unicode="&#xe64a;" 
d="M841 274q-44 0 -82 -19.5t-64 -53.5l-264 124q8 30 8 59t-8 59l264 124q26 -34 64 -53.5t82 -19.5q76 0 129.5 53.5t53.5 129t-53.5 129t-129.5 53.5t-129.5 -53.5t-53.5 -128.5q0 -20 6 -43l-264 -125q-31 44 -78.5 69t-102.5 25q-90 0 -154.5 -64t-64.5 -155t64.5 -155
t154.5 -64q55 0 102.5 25t78.5 69l264 -125q-6 -23 -6 -43q0 -75 53.5 -128.5t129.5 -53.5t129.5 53.5t53.5 129t-53.5 129t-129.5 53.5zM841.5 786q45.5 0 77.5 -32t32 -77.5t-32 -77.5t-77.5 -32t-78 32t-32.5 77.5t32.5 77.5t78 32zM219.5 238q-60.5 0 -103.5 43t-43 103
t43 103t103.5 43t103.5 -43t43 -103t-43 -103t-103.5 -43zM841.5 -18q-45.5 0 -78 32t-32.5 77.5t32.5 77.5t78 32t77.5 -32t32 -77.5t-32 -77.5t-77.5 -32z" />
    <glyph glyph-name="cooperation" unicode="&#xe64b;" horiz-adv-x="1025" 
d="M12 307l57 -31q3 -2 8 -3.5t15.5 1.5t16.5 16l142 309q1 3 3 7.5t0 15t-12 16.5l-62 31q-2 2 -5.5 3t-12.5 -2t-14 -13q0 -4 -36.5 -83t-73 -155.5l-36.5 -76.5q-9 -25 10 -35zM947 276l59 28q1 0 2.5 1t6 4.5t6.5 8t3 11.5t-4 16l-146 307q0 1 -1 2.5l-4 6t-7 6.5
t-10 3.5t-12 -1.5l-63 -32q-2 -1 -4.5 -3.5t-7.5 -11t2 -19.5q3 -3 40 -81.5t72.5 -155.5l35.5 -77q0 -1 1 -2t4.5 -5t7 -5.5t9 -3t10.5 2.5zM151 277l19 42l68 -89q5 1 12.5 2t23.5 -3t23 -17q2 -2 4 -6t5.5 -17t-0.5 -28q9 -7 9 -11q31 8 49 -15q2 -1 4.5 -4t7 -14
t3.5 -23q12 -5 14 -12q30 7 45 -11q2 -2 4.5 -5.5t7.5 -13t4 -18.5l28 -21q26 -3 30 -24l24 -19q2 0 4.5 -1t9.5 -1.5t12.5 1t10.5 8.5t5 18l-93 74q0 1 -0.5 3t-0.5 7t1.5 8.5t7.5 6t15 0.5l139 -102q23 -10 37 13q13 19 -6 40l-148 111q0 2 -0.5 4t-1 7t1 9t7 7t14.5 2
l175 -129q25 -10 36 9q14 19 0 39l-194 147q0 2 -0.5 4t-1 8t2 9t8 6t16.5 -1l199 -148q4 -1 9 -2t17 3t18 15q2 3 4 8.5t1 18.5t-11 23l-282 257q-2 1 -6 2.5t-14.5 3t-20.5 0t-22 -10t-21 -24.5q0 -3 -1 -9t-7 -22.5t-16 -29.5t-30 -26t-46 -18q-2 0 -4 0.5t-9 1.5
t-12 3.5l-12 6t-10 9t-5.5 12.5t2.5 17q2 2 5 8t8 27t4 46q2 40 29 73h-102l22 48h154q7 5 18.5 11t41 15.5t50.5 7.5q63 -3 79 -13q9 -3 24 -7.5t47 -10.5t48 -3l137 -297l-21 -52q1 -1 3.5 -4.5t8 -13.5t8 -20.5t0.5 -26t-10 -30.5q-16 -34 -64 -36q5 -35 -19 -55
q-2 -3 -6 -7t-20 -9t-35 -2q0 -4 -0.5 -9.5t-7 -19.5t-18.5 -23q-4 -4 -11 -8t-30 -3t-46 18q-1 -4 -3.5 -10t-15.5 -17.5t-32 -15.5q-30 -5 -48 13q-2 -2 -4 -6t-10 -13t-17 -14t-21.5 -4.5t-25.5 10.5l-3 3t-6 8t-6 12.5t-1 16.5t7 20q-1 -2 -4 -6t-12.5 -12.5t-19 -12.5
t-23 -1t-26.5 16l-2.5 2.5t-5 7.5t-4.5 12.5t1 17.5t9 23q-2 -2 -4.5 -5t-11 -8t-17.5 -7t-21 1t-24 15q-1 0 -2.5 2t-5 8.5t-5 13.5t0 19t7.5 24q-2 -2 -4.5 -5t-11.5 -8.5t-18 -7.5t-22 2t-26 17q-2 2 -4 6t-6 18.5t3 32.5l42 60z" />
    <glyph glyph-name="fenlei2" unicode="&#xe64c;" 
d="M87 660h45q9 0 15.5 -6.5t6.5 -15.5v-45q0 -9 -6.5 -15.5t-15.5 -6.5h-45q-9 0 -15.5 6.5t-6.5 15.5v45q0 9 6.5 15.5t15.5 6.5zM356 660h581q9 0 15.5 -6.5t6.5 -15.5v-45q0 -9 -6.5 -15.5t-15.5 -6.5h-581q-10 0 -16.5 6.5t-6.5 15.5v45q0 9 6.5 15.5t16.5 6.5zM87 34
h45q9 0 15.5 -6.5t6.5 -15.5v-45q0 -9 -6.5 -15.5t-15.5 -6.5h-45q-9 0 -15.5 6.5t-6.5 15.5v45q0 9 6.5 15.5t15.5 6.5zM356 34h581q9 0 15.5 -6.5t6.5 -15.5v-45q0 -9 -6.5 -15.5t-15.5 -6.5h-581q-10 0 -16.5 6.5t-6.5 15.5v45q0 9 6.5 15.5t16.5 6.5zM87 347h45
q9 0 15.5 -6.5t6.5 -15.5v-45q0 -9 -6.5 -15.5t-15.5 -6.5h-45q-9 0 -15.5 6.5t-6.5 15.5v45q0 9 6.5 15.5t15.5 6.5zM356 347h581q9 0 15.5 -6.5t6.5 -15.5v-45q0 -9 -6.5 -15.5t-15.5 -6.5h-581q-10 0 -16.5 6.5t-6.5 15.5v45q0 9 6.5 15.5t16.5 6.5z" />
    <glyph glyph-name="sixin" unicode="&#xe607;" 
d="M886 688h-748q-31 0 -53 -22t-22 -53v-458q0 -31 22 -53t53 -22h748q31 0 53 22t22 53v458q0 31 -22 53t-53 22v0v0zM868 634l-298 -264q-39 -34 -58 -34t-58 34l-298 264h712v0v0zM119 172v414l233 -205l-233 -209v0v0zM158 134l234 207l38 -34q34 -29 82 -29t82 29
l38 34l234 -207h-708v0v0zM905 172l-233 209l233 205v-414v0v0zM905 172z" />
    <glyph glyph-name="iconxin" unicode="&#xe608;" 
d="M772 773h-520q-64 0 -109.5 -45.5t-45.5 -109.5v-468q0 -64 45.5 -109.5t109.5 -45.5h520q64 0 109.5 45.5t45.5 109.5v468q0 64 -45.5 109.5t-109.5 45.5zM354 644q21 -11 38 -21.5t33 -23.5l-21 -25q-8 8 -15 13.5t-15 11t-16.5 10.5t-20.5 11zM268 574q22 -3 57 -4
q33 -1 76 -1h48q21 1 36 1.5t26 1.5q13 1 23 2v-35q-23 3 -57 4t-76 1t-76.5 -1t-56.5 -4v35v0zM382 467l-22 -24q-6 11 -12 18.5t-13 14.5t-15 14t-19 15l22 19q9 -7 16.5 -13.5t14.5 -13t13.5 -13.5t14.5 -17zM309 220l-8 -14t-8 -13.5t-9 -13.5q-9 10 -14.5 13t-14.5 6
q10 11 20 24.5t18.5 28t16 28.5t12.5 27q7 -7 12.5 -10t12.5 -5q8 -1 8 -8t-8 -11q-4 -1 -12 -9.5t-16 -24.5q-2 -2 -10 -18zM419 173q0 -11 -3 -18t-12 -11.5t-25 -6t-42 -1.5q3 11 -2 21t-15 19q21 -4 34 -5t20.5 0t10 5t2.5 10v138q-35 0 -64.5 -1.5t-49.5 -4.5v36
q20 -2 49.5 -3.5t64.5 -1.5v66h-44t-34 -1q-16 0 -29 -1t-24 -2v32l26 -2q13 0 30 -1h42h59q13 21 24.5 47t18.5 47q10 -4 16 -7q7 -3 16 -6q10 -3 10 -8t-5 -8q-9 -5 -21.5 -20t-30.5 -45q31 0 56 1t43 2v-32q-21 3 -52 3.5t-69 0.5v-66q36 0 65.5 1.5t48.5 3.5v-36
q-19 3 -48.5 4t-65.5 2v-151v0zM465 296q17 -18 30.5 -34.5t22.5 -33.5l-26 -21q-11 21 -22.5 37t-28.5 34zM769 419q-14 2 -34 3t-43 1v-206q0 -25 0.5 -45.5t3.5 -44.5h-40q1 12 2 21q0 1 0.5 8.5t0.5 10.5q1 10 1 21v29v206h-70q0 -61 -4 -104t-13.5 -76t-26 -61
t-41.5 -58q-10 6 -19.5 9.5t-23.5 4.5q24 20 42.5 44t31 57t18.5 75.5t6 100.5q0 27 -1 53t-2 49t-2.5 41.5t-3.5 29.5q47 0 91.5 12t80.5 37q4 -9 8.5 -16.5t8.5 -11.5q6 -7 3.5 -10.5t-8.5 -1.5q-2 1 -4.5 0.5t-8 -1.5t-14.5 -3q-9 -3 -22 -7q-10 -3 -21 -6q-12 -3 -25 -6
q-16 -4 -25 -6q-13 -3 -25 -6v-113h79h36q16 1 27 1t20 1t17 2v-34z" />
    <glyph glyph-name="fenxiang3" unicode="&#xe64d;" 
d="M929 -49q0 -11 -8.5 -19t-20.5 -8h-793q-12 0 -20.5 8t-8.5 19v611q0 11 8.5 19t20.5 8h186v41h-186q-29 0 -49.5 -20t-20.5 -48v-611q0 -28 20.5 -48t49.5 -20h793q29 0 49.5 20t20.5 48v210h-41v-210zM450 88q-2 6 -3 21t0.5 51.5t8.5 74t26.5 87t49.5 92.5
q130 185 435 238l7 -44q-286 -49 -405 -219q-27 -39 -44.5 -85t-24 -80t-7.5 -70t0 -46.5t2 -19.5h-45zM848 379l-38 24l146 229l-250 136l21 39l292 -158z" />
    <glyph glyph-name="lianjie" unicode="&#xe69e;" 
d="M692 181h-224q-10 0 -17.5 7.5t-7.5 18t7.5 18t17.5 7.5h224q8 0 13.5 6t5.5 14v313q0 8 -5.5 13.5t-13.5 5.5h-582q-8 0 -13.5 -5.5t-5.5 -13.5v-313q0 -8 5.5 -14t13.5 -6q11 0 18.5 -7.5t7.5 -18t-7.5 -18t-18.5 -7.5q-29 0 -49.5 20.5t-20.5 50.5v313q0 29 20.5 49.5
t49.5 20.5h582q29 0 49.5 -20.5t20.5 -49.5v-313q0 -30 -20.5 -50.5t-49.5 -20.5zM915 -42h-581q-29 0 -49.5 20.5t-20.5 49.5v313q0 29 20.5 49.5t49.5 20.5h224q10 0 17.5 -7.5t7.5 -18t-7.5 -18t-17.5 -7.5h-224q-8 0 -13.5 -5.5t-5.5 -13.5v-313q0 -8 5.5 -13.5
t13.5 -5.5h581q8 0 14 5.5t6 13.5v313q0 8 -6 13.5t-14 5.5q-10 0 -17.5 7.5t-7.5 18t7.5 18t17.5 7.5q30 0 50.5 -20.5t20.5 -49.5v-313q0 -29 -20.5 -49.5t-50.5 -20.5z" />
    <glyph glyph-name="erweima1" unicode="&#xe6c2;" 
d="M190 622h70v-70h-70v70zM386 748h-322v-322h126v-56h70v56h126v70h56v56h-56v196zM316 496h-182v182h182v-182zM190 48h70v-70h-70v70zM764 622h70v-70h-70v70zM512 306v-76h70v70h56v70h-56v56h-70v-56v-64zM512 50v-72h70v72v54h56v70h-58h-68v-60v-64zM582 -22h56v-56
h-56v56zM442 -78v-70h74h66v70h-66h-74zM708 104h-70v-54v-72h70h56v70h-56v56zM764 -148h72h64h60v70h-60h-66v56h-70v-56v-70zM960 300v70h-60h-66v-70h66h60zM890 48h70v-70h-70v70zM442 496h70v-70h-70v70zM764 370v56h196v322h-322v-70h-58h-68v-56h68h58v-70h-56v-56
h56v-70h70v-56h56zM708 678h182v-182h-182v182zM708 230h56v-56h-56v56zM834 104h-70v-56h72h54v66v60h70v56h-60h-66v-52v-74zM442 622h70v-70h-70v70zM260 300h56v-70h-56v70zM442 370h-54h-72v-70h70v-70h56v76v64zM386 -22v126h56v70h-54h-198v68v58h-58h-68v-70h70v-56
h-70v-322h322v70h56v56h-56zM316 -78h-182v182h182v-182zM442 230h70v-56h-70v56zM638 300h70v-70h-70v70zM764 300h70v-70h-70v70z" />
    <glyph glyph-name="jianhao" unicode="&#xe69f;" 
d="M165 369h694v-138h-694v138z" />
    <glyph glyph-name="iconfontyonghu" unicode="&#xe64e;" 
d="M853 87q-92 31 -128 42l-129 43v43q4 3 9.5 10t20.5 31t26 51t20.5 71.5t9.5 92.5v46.5v37.5q0 78 -48.5 122.5t-121.5 48.5v1v0v0v-1q-73 -4 -121.5 -48.5t-48.5 -122.5v-37.5v-46.5q0 -48 9 -92t21.5 -72.5t25 -50.5t21.5 -31l9 -10v-43q-65 -23 -129 -43
q-36 -11 -128 -42q-24 -9 -41.5 -30t-25.5 -42.5t-13 -47.5t-5.5 -35.5t-0.5 -15.5v0v-43h427h427v43q0 6 -0.5 15.5t-5.5 35.5t-13 47.5t-25.5 42.5t-41.5 30z" />
    <glyph glyph-name="sanjiao" unicode="&#xe609;" 
d="M1024 685l-512 -602l-512 602h1024z" />
    <glyph glyph-name="cuowu" unicode="&#xe62b;" 
d="M512 -147q-91 0 -174 35.5t-143 95t-95.5 142.5t-35.5 174t35.5 174t95.5 143t143 95.5t174 35.5t174 -35.5t142.5 -95.5t95 -143t35.5 -174t-35.5 -174t-95 -142.5t-142.5 -95t-174 -35.5zM720 510v0q-16 16 -38.5 16t-37.5 -16l-133 -133l-132 131q-15 16 -37.5 16
t-37.5 -16v0q-16 -16 -16 -38t16 -37l131 -132l-133 -133q-16 -15 -16 -37.5t16 -38.5v0q16 -15 38 -15t38 15l133 133l133 -133q16 -15 38 -15t38 15v0q15 16 15 38t-15 38l-133 133l133 133q15 16 15 38t-15 38z" />
    <glyph glyph-name="xiazai" unicode="&#xe6c0;" 
d="M514 157q0 -10 -8.5 -17t-20.5 -7v0q-12 0 -20.5 7t-8.5 17v414q0 9 8.5 16t20.5 7v0q12 0 20.5 -7t8.5 -16v-414zM505 202q11 -11 11 -25.5t-11 -25.5v0q-10 -10 -25 -10t-25 10l-152 152q-11 10 -11 25t11 25v0q10 11 25 11t25 -11zM618 353q10 11 25 11t25 -11v0
q11 -10 11 -25t-11 -25l-151 -152q-11 -10 -25.5 -10t-25.5 10v0q-10 11 -10 25.5t10 25.5zM778 50q0 -14 -10 -24.5t-25 -10.5h-485q-15 0 -25 10.5t-10 24.5v0q0 15 10 25t25 10h485q15 0 25 -10t10 -25v0z" />
    <glyph glyph-name="shoucang" unicode="&#xe60a;" 
d="M782 -20l-264 169l-262 -173l71 317l-237 242l308 2l115 294l122 -296l310 1l-239 -240l76 -316v0zM782 -20z" />
    <glyph glyph-name="yinyongwenzi" unicode="&#xe6c5;" 
d="M549 749q-108 0 -199.5 -53.5t-145 -145t-53.5 -200t53.5 -200t145 -145t199.5 -53.5t200 53.5t145 145t53 200t-53 200t-145 145t-200 53.5zM549.5 -19q-100.5 0 -185.5 49.5t-134.5 134.5t-49.5 185.5t49.5 185.5t134.5 134.5t185.5 49.5t185.5 -49.5t134.5 -134.5
t49.5 -185.5t-49.5 -185.5t-134.5 -134.5t-185.5 -49.5zM441 336h152l-6 -105q-2 -27 -13 -44.5t-29.5 -24t-112.5 -6.5q-8 31 -17 59q31 -1 61 -1q25 0 34 3.5t12 12.5t6 54h-152l14 149h143v46h-155v53h214v-151h-148zM663 545h59v-389h-59v389z" />
    <glyph glyph-name="zhengque" unicode="&#xe62c;" 
d="M512 748q-122 0 -225 -60t-163 -163t-60 -225t60 -225t163 -163t225 -60t225 60t163 163t60 225t-60 225t-163 163t-225 60v0zM437 76l-224 224l75 75l149 -150l299 299l75 -75l-374 -373v0zM437 76z" />
    <glyph glyph-name="login-user" unicode="&#xe64f;" 
d="M968 136h-28l0.5 1.5l0.5 1.5v61q0 58 -41.5 99t-99.5 41t-99 -41t-41 -99v-61v-1.5v-1.5h-16q-19 0 -33 -14t-14 -33v-223q0 -19 14 -33t33 -14h325q19 0 32.5 14t13.5 33v223q0 19 -13.5 33t-33.5 14v0zM732 139v61q0 28 20 48.5t48.5 20.5t48.5 -20.5t20 -48.5v-61
v-1.5v-1.5h-138l0.5 1.5l0.5 1.5v0zM979 -134q0 -5 -3 -8t-8 -3h-324q-5 0 -8 3t-3 8v223q0 5 3 8t8 3h324q5 0 8 -3t3 -8v-223zM806 -11q-11 0 -19 -7.5t-8 -18.5v-52h54v52q0 11 -8 18.5t-19 7.5v0zM656 195q-26 9 -52 15q-4 2 -8 2h-9q-5 0 -9 -2q-7 -3 -20 -9
q-5 -2 -17 -5q-2 -1 -4.5 -1.5t-3.5 -1.5q-6 -1 -15 -3q-6 -1 -15 -2q-9 -2 -12 -2q-15 -2 -28 -2q-2 0 -5.5 0.5t-4.5 0.5q-62 2 -105 25q-4 2 -8 2h-7h-4q-159 -38 -280 -155q-5 -5 -5 -13v-62q0 -9 2.5 -46t6.5 -76.5t9 -39.5h522q-32 66 -32 140q0 68 27.5 129t76.5 106
v0zM265 491q0 -14 9.5 -24t22.5 -10h1q5 -70 53.5 -125.5t111.5 -55.5q7 0 15 1l5 1q4 0 9 1q1 1 3.5 1.5l2.5 0.5q2 1 7 2q6 2 8 3l4 2q45 20 76 67.5t35 101.5h1q13 0 22.5 10t9.5 24q0 22 -19 32q10 31 10 64q0 68 -38.5 121.5t-99.5 71.5l-1.5 0.5l-1.5 0.5q-9 2 -19 4
q-5 1 -6 1q-13 2 -23 2q-78 0 -133.5 -59t-55.5 -142q0 -33 10 -64q-19 -9 -19 -32v0zM265 491z" />
    <glyph glyph-name="quanping" unicode="&#xe650;" 
d="M799 32h-580q-33 0 -56.5 23t-23.5 56v378q0 33 23.5 56t56.5 23h580q33 0 56 -23t23 -56v-378q0 -33 -23 -56t-56 -23zM219 489v-378h580v378h-580zM79 -114h191q16 0 27.5 12t11.5 28t-11.5 28t-27.5 12h-191v185q0 17 -11.5 28.5t-28 11.5t-28 -11.5t-11.5 -28.5v-185
q0 -33 23.5 -56.5t55.5 -23.5zM984.5 191q-16.5 0 -28 -11.5t-11.5 -28.5v-185h-191q-16 0 -27.5 -12t-11.5 -28t11.5 -28t27.5 -12h191q33 0 56 23.5t23 56.5v185q0 17 -11.5 28.5t-28 11.5zM0 634v-185q0 -17 11.5 -28.5t28 -11.5t28 11.5t11.5 28.5v185h191q16 0 27.5 12
t11.5 28t-11.5 28t-27.5 12h-191q-32 0 -55.5 -23.5t-23.5 -56.5zM1024 449v185q0 33 -23 56.5t-56 23.5h-191q-16 0 -27.5 -11.5t-11.5 -28t11.5 -28.5t27.5 -12h191v-185q0 -17 11.5 -28.5t28 -11.5t28 11.5t11.5 28.5z" />
    <glyph glyph-name="refresh" unicode="&#xe6e6;" 
d="M512 896q-139 0 -257 -68.5t-186.5 -186.5t-68.5 -257t68.5 -257t186.5 -186.5t257 -68.5q123 0 231 54.5t180 151t93 216.5q3 17 5 34q1 11 -5.5 19t-16.5 9t-18.5 -5.5t-9.5 -16.5q-1 -16 -4 -31q-29 -165 -158 -273t-297 -108q-94 0 -179.5 36.5t-147.5 98.5
t-98.5 147.5t-36.5 179.5t36.5 179.5t98.5 147.5t147.5 98.5t179.5 36.5q139 0 254.5 -76t169.5 -203q4 -9 14 -13t19.5 0t13 14t-0.5 19q-60 140 -188 224.5t-282 84.5zM958 546l25 25h-259q-10 0 -17.5 -7.5t-7.5 -18t7.5 -17.5t17.5 -7h259q11 0 18 7t7 18v275
q0 10 -7 17.5t-17.5 7.5t-18 -7.5t-7.5 -17.5v-275z" />
    <glyph glyph-name="jiantou" unicode="&#xe651;" 
d="M300 748l456 -447l-456 -446l-35 34l421 412l-421 412z" />
    <glyph glyph-name="xinwen" unicode="&#xe60b;" 
d="M522 866q-98 0 -187.5 -38t-154 -102.5t-102.5 -154t-38 -187.5t38 -187.5t102.5 -154t154 -102.5t187.5 -38t187.5 38t154 102.5t102.5 154t38 187.5t-38 187.5t-102.5 154t-154 102.5t-187.5 38zM448.5 159q-27.5 -25 -65 -24t-62 28.5t-22.5 64.5t30 62t65 24
t61.5 -28.5t22.5 -64.5t-29.5 -62zM597 174q-12 98 -77 170q-69 76 -172 95v71q135 -20 224 -118q84 -92 96 -218h-71v0zM774 174q-12 168 -123 290q-120 132 -303 152v71q102 -9 194 -53.5t162 -121.5q129 -142 140 -338h-70z" />
    <glyph glyph-name="duigou" unicode="&#xe62d;" 
d="M356 321l95 -184q3 8 9 22t26.5 55t43.5 80.5t59 92t73.5 96t86.5 85.5t99 68q-2 -19 -6.5 -63t-6 -67.5t4 -60.5t19.5 -70q-49 -11 -132 -89.5t-155 -171t-110 -160.5q-74 92 -156.5 159t-145.5 90z" />
    <glyph glyph-name="jiantou1" unicode="&#xe652;" 
d="M273 300l432 431l34 -34l-431 -431zM705 -130l-432 431l35 34l431 -431z" />
    <glyph glyph-name="guanyuwomen" unicode="&#xe653;" 
d="M510 751q-91 0 -174 -35.5t-143 -95.5t-95.5 -143t-35.5 -174t35.5 -174t95.5 -143t143 -95.5t174 -35.5t174 35.5t143.5 95.5t96 143t35.5 174t-35.5 174t-96 143t-143.5 95.5t-174 35.5zM665 -63q-74 -31 -155 -31t-154 31q-71 30 -126 85h-1q37 86 113.5 136.5
t169.5 50.5q91 0 168 -50.5t114 -133.5q-1 0 -1.5 -1t-1.5 -2q-55 -55 -126 -85zM512 280q-53 0 -90.5 37.5t-37.5 90t37.5 90t90.5 37.5t90.5 -37.5t37.5 -90t-37.5 -90t-90.5 -37.5zM830 68q-41 78 -113 128q-55 39 -119 54q42 24 67.5 65.5t25.5 91.5q0 75 -52.5 127.5
t-126.5 52.5t-126.5 -52.5t-52.5 -127.5q0 -50 25.5 -91.5t67.5 -65.5q-62 -15 -116 -52q-76 -52 -117 -133q-30 39 -49 84q-31 73 -31 154t31 155q31 71 86 126t126 85q73 31 154 31t155 -31q71 -30 126 -85t85 -126q31 -74 31 -155t-31 -154q-18 -44 -46 -81z" />
    <glyph glyph-name="xiazai1" unicode="&#xe60c;" 
d="M829 2h-639q-53 0 -90.5 37.5t-37.5 90.5v159q0 14 9.5 23t22.5 9h64q13 0 22.5 -9t9.5 -23v-95q0 -27 19 -45.5t45 -18.5h511q27 0 45.5 18.5t18.5 45.5v95q0 14 9.5 23t22.5 9h64q13 0 22.5 -9t9.5 -23v-159q0 -53 -37.5 -90.5t-90.5 -37.5v0zM250 628q10 10 23.5 10
t23.5 -10l149 -148v321q0 13 9 22.5t23 9.5h64q13 0 22 -9.5t9 -22.5v-321l149 148q10 10 24 10t23 -10l47 -46q10 -10 10 -23.5t-10 -23.5l-264 -264q-1 -1 -6.5 -4t-16 -6.5t-19.5 -3.5t-20 3.5t-16.5 6.5t-6.5 4l-264 264q-10 10 -10 23.5t10 23.5l47 46v0z" />
    <glyph glyph-name="zhaozhuanjia" unicode="&#xe654;" horiz-adv-x="1025" 
d="M1002 4l-155 90q-25 14 -48 -3l-41 24q45 87 45 185q0 109 -53.5 201.5t-146 146.5t-201.5 54t-201.5 -54t-146.5 -146.5t-54 -201.5t54 -201.5t146.5 -146.5t201.5 -54q104 0 193.5 50t144.5 136l42 -24q-3 -28 21 -42l155 -90q11 -5 22 -5q26 0 38 22q9 15 4.5 32.5
t-20.5 26.5zM646 28q-21 57 -64 99t-100 60q27 19 42.5 49t15.5 64q0 57 -40.5 97.5t-97.5 40.5t-97.5 -40.5t-40.5 -97.5q0 -34 15.5 -63.5t42.5 -49.5q-57 -18 -100.5 -60t-63.5 -99q-57 52 -89.5 122.5t-32.5 149.5q0 99 49 183.5t133.5 133.5t183.5 49t183 -49
t133 -133.5t49 -183.5q0 -79 -32 -149.5t-89 -122.5z" />
    <glyph glyph-name="shouye" unicode="&#xe60d;" 
d="M954 384l-426 440q-6 7 -15 7t-15 -7l-427 -440q-6 -7 -6 -15.5t6.5 -14.5t15 -6t14.5 6l29 30v-424q0 -9 6 -15t15 -6h234q8 0 14.5 6t6.5 15l1 297h211v-297q0 -9 6.5 -15t15.5 -6h233q9 0 15 6t6 15v424l29 -30q6 -6 15 -6t15 6t6.5 14.5t-5.5 15.5zM852 423v-442
h-191v297q0 9 -6 15.5t-15 6.5h-255q-8 0 -14.5 -6.5t-6.5 -15.5v-297h-191v442q0 2 -1 4l341 352l339 -352v-4z" />
    <glyph glyph-name="gongnenganniu" unicode="&#xe60e;" horiz-adv-x="1156" 
d="M0 896h1155v-120h-1155v120v0zM0 444h1155v-120h-1155v120v0zM0 -8h1155v-120h-1155v120v0z" />
    <glyph glyph-name="aboutus" unicode="&#xe655;" 
d="M503.5 733q-90.5 0 -172.5 -35.5t-141.5 -95t-95 -141.5t-35.5 -172.5t35.5 -172.5t95 -141.5t141.5 -94.5t172.5 -35t172.5 35t141.5 94.5t95 141.5t35.5 172.5t-35.5 172.5t-95 141.5t-141.5 95t-172.5 35.5zM553 -32h-124v345h124v-345zM491 387q-36 0 -61 25.5
t-25 61t25 61t61 25.5t61.5 -25.5t25.5 -61t-25.5 -61t-61.5 -25.5z" />
    <glyph glyph-name="biji01" unicode="&#xe656;" 
d="M696 676h-466q-2 0 -6 -0.5t-14.5 -4t-19 -10t-16.5 -20.5t-10 -32v-620q0 -3 0.5 -7.5t4.5 -17t11.5 -22t23.5 -17t39 -7.5h542q2 0 6.5 0.5t15.5 4.5t20 11t16.5 20.5t9.5 31.5v501l-69 -52l-2 -448l-549 1v619h413zM755 643l73 -57l15 21q12 15 0 33q-10 18 -28 28
q-25 14 -41 -3zM805 556l-125 -165q-11 -20 -30 -30l-55 -26q-15 -7 -18 13l9 61q0 11 14 30l132 175zM344 246h326q1 0 3 0.5t5 -3.5t2 -12v-31q0 -1 -0.5 -2t-4.5 -3t-9 -1h-319q-11 -1 -12 10v35l5 6q2 1 4 1zM344 125h326q1 -1 3 0t5 -3t2 -12v-31q0 -1 -0.5 -2t-4.5 -3
t-9 -1l-319 -1q-11 0 -12 10v36l5 6q2 1 4 1z" />
    <glyph glyph-name="duihua2" unicode="&#xe657;" 
d="M805 -77q-16 0 -35 11l-126 79h-159q-33 0 -58.5 18.5t-36.5 48.5l-79 -49q-40 -25 -68 -9q-22 13 -22 42v77h-28q-54 0 -92.5 38t-38.5 93v277q0 55 38.5 93.5t92.5 38.5h33q8 0 14.5 -6.5t6.5 -15t-6.5 -15t-14.5 -6.5h-33q-36 0 -62 -26t-26 -63v-277q0 -37 26 -63
t62 -26h70v-119q0 -4 1 -5q6 -4 25 8l187 116h234q36 0 62 26t26 63v277q0 37 -26 63t-62 26h-360q-9 0 -15 6.5t-6 15t6 15t15 6.5h360q54 0 92.5 -38.5t38.5 -93.5v-133h17q42 0 71.5 -30t29.5 -71v-201q0 -42 -29.5 -71.5t-71.5 -29.5h-13v-50q0 -24 -20 -35
q-9 -5 -20 -5zM427 103q4 -21 20.5 -34.5t37.5 -13.5h171l136 -85q6 -3 10 -4v89h56q25 0 42 17.5t17 41.5v201q0 24 -17 41t-42 17h-17v-101q0 -55 -38.5 -93t-92.5 -38h-222zM671 330h-22q-8 0 -14.5 6t-6.5 14.5t6.5 15t14.5 6.5h22q9 0 15.5 -6.5t6.5 -15t-6.5 -14.5
t-15.5 -6zM671 463h-149q-8 0 -14.5 6.5t-6.5 15t6.5 14.5t14.5 6h149q9 0 15.5 -6t6.5 -14.5t-6.5 -15t-15.5 -6.5z" />
    <glyph glyph-name="gerenxinxi1" unicode="&#xe6a0;" 
d="M836 481h-58v82q-2 3 -6 7t-19 10t-32.5 6t-30.5 -6t-17 -11l-4 -6l1 -82h-328v81q-2 3 -6 7t-18.5 10.5t-30.5 6.5t-29.5 -6t-19.5 -12l-5 -6v-81h-55q-23 0 -39 -16.5t-16 -38.5v-384q0 -23 16 -39t39 -16h658q23 0 39 16t16 39v384q0 22 -16 38.5t-39 16.5zM860 59
q0 -21 -14.5 -35.5t-35.5 -14.5h-603q-21 0 -35.5 14.5t-14.5 35.5v348q0 20 14.5 34.5t35.5 14.5l50 1h10v82q3 12 24 12q10 0 16 -3t7 -6l1 -3v-82l42 -1h342v83q0 2 0.5 4t6.5 5t18 3q9 1 15 -2t7 -7l1 -3v-83h63q21 0 35.5 -14.5t14.5 -34.5v-348zM778 362h-219
q-6 0 -11 -5t-5 -11.5t5 -11.5t11 -5h219q7 0 11.5 5t4.5 11.5t-4.5 11.5t-11.5 5v0zM778 280h-219q-6 0 -11 -4.5t-5 -11.5t5 -12t11 -5h219q7 0 11.5 5t4.5 12t-4.5 11.5t-11.5 4.5v0zM394 210h-2q-9 1 -9 5q1 2 10 8q18 12 31.5 35.5t13.5 51.5q0 41 -26.5 70.5t-64 29.5
t-64 -29.5t-26.5 -70.5q0 -29 13.5 -53.5t36.5 -36.5l3 -2v0q7 -3 7 -6v-1v-1h-2l-4 -2q-6 -1 -8 -2h-1q-41 -15 -65 -47.5t-24 -72.5v-14h285v14q0 43 -29 77.5t-75 46.5zM242 100q5 27 23.5 48t47.5 31l4 2h0.5h1.5q2 1 4 1q4 1 7 3h1v0q14 9 14 27q0 19 -21 31l-3 2
q-16 9 -26 26.5t-10 38.5q0 29 18 50t44 21t44 -21t18 -50q0 -20 -9.5 -37t-22.5 -26q-23 -16 -23 -32q0 -14 10 -22.5t24 -10.5q32 -8 53.5 -30.5t26.5 -51.5h-226zM778 202h-219q-6 0 -11 -4.5t-5 -11.5t5 -11.5t11 -4.5h219q7 0 11.5 4.5t4.5 11.5t-4.5 11.5t-11.5 4.5v0
zM778 121h-219q-6 0 -11 -5t-5 -11.5t5 -11.5t11 -5h219q7 0 11.5 5t4.5 11.5t-4.5 11.5t-11.5 5v0z" />
    <glyph glyph-name="weikan" unicode="&#xe60f;" 
d="M936 577v7q-5 2 -14 6t-39.5 12t-64.5 12t-88.5 1t-111.5 -16q-5 -1 -17 -6q-14 -1 -18.5 11t3.5 21l11 6q7 3 20 6.5t53 10t80 8t95 -7t103 -28.5q19 -9 25 -20v-7v-590v-9q0 -1 -1 -2.5t-4 -5t-6.5 -5t-9 -1.5t-12.5 5q-56 33 -185.5 29t-204.5 -34q-30 -1 -48 0
q-29 13 -98 25t-157 9.5t-136 -29.5q-9 -5 -18 -4t-14 14q2 28 0 591v14q1 10 10 13q1 0 3 2q17 7 34 13t64 16t93.5 12t114.5 -7.5t135 -34.5q25 -13 29 -20q2 -3 1 -11v-484v-13q-2 -3 -6 -7.5t-13.5 -5t-17.5 14.5v11v476q-8 4 -22.5 9.5t-60 16t-91.5 15t-111.5 -2.5
t-125.5 -29v-136v-149t0.5 -132t0.5 -99.5t0 -36.5q7 2 20.5 5.5t55.5 9.5t85 7t106.5 -7t123.5 -27l34 -1q9 3 25 7.5t63 13t92 12.5t105 -0.5t109 -20.5q1 13 1 547z" />
    <glyph glyph-name="dengluzhaodao" unicode="&#xe658;" 
d="M237 735q-36 0 -61.5 -25.5t-25.5 -61.5v-696q0 -36 -25.5 -61.5t-61.5 -25.5h584q-54 30 -87 84t-33 119q0 26 6 52h-264q-7 0 -12 5t-5 12v35q0 7 5 12t12 5h293q31 51 83.5 81t113.5 30q15 0 29 -2v350q0 36 25.5 61.5t61.5 25.5h-638zM687 308q0 -7 -5 -12t-12 -5
h-401q-7 0 -12 5t-5 12v35q0 7 5 12.5t12 5.5h401q7 0 12 -5.5t5 -12.5v-35zM687 480q0 -8 -5 -13t-12 -5h-401q-7 0 -12 5t-5 13v34q0 8 5 13t12 5h401q7 0 12 -5t5 -13v-34zM759.5 271q-84.5 0 -144 -59.5t-59.5 -144t59.5 -143.5t144 -59t144 59t59.5 143.5t-59.5 144
t-144 59.5zM890 50q0 -7 -5 -12t-12 -5h-227q-7 0 -12 5t-5 12v35q0 7 5 12t12 5h227q7 0 12 -5t5 -12v-35z" />
    <glyph glyph-name="changjianwenti2" unicode="&#xe6bf;" 
d="M113 290v37l1 6q3 50 17 96q35 109 120 184q88 77 205 95q2 0 29 4h61l4 -1q49 -4 94 -19q143 -50 220 -180q41 -69 51 -149q0 -2 4 -36v-37l-1 -6q-3 -50 -17 -95q-35 -111 -122 -186q-93 -80 -215 -95q-2 0 -29 -3h-38l-5 1q-43 5 -44 5q-151 27 -247 146
q-71 89 -85 205q0 1 -3 28zM869 309q0 96 -47.5 177t-128.5 128.5t-176.5 47.5t-177 -47t-129 -128.5t-47.5 -177.5t47.5 -177t128.5 -128.5t177 -47.5q95 -1 176.5 46.5t128.5 129t48 177.5zM437 395q-13 1 -38 4.5t-34 4.5q9 28 10 30q17 46 55 70q30 19 68 22q34 2 60 -2
q45 -8 76 -45q15 -18 24 -32q13 -22 6 -54q-7 -37 -41 -72q-18 -19 -39 -32q-26 -17 -33 -51q0 -2 -4 -28h-68l-1 2q5 51 6 59q2 24 25 45q5 5 52 47q18 16 23 30q8 21 0.5 38t-28.5 26q-29 12 -58 5q-38 -8 -55 -50zM478 103v80h72v-80h-72z" />
    <glyph glyph-name="cuowu1" unicode="&#xe62e;" 
d="M564 276l289 288q10 10 10 24.5t-10 25t-24.5 10.5t-24.5 -11l-290 -287l-286 287q-11 11 -25 11t-24.5 -10.5t-10.5 -25t10 -24.5l287 -287l-289 -288q-10 -10 -10 -24.5t10 -25t24.5 -10.5t24.5 11l289 287l289 -290q11 -10 25.5 -10t24.5 10t10 24.5t-10 24.5
l-289 290v0zM564 276z" />
    <glyph glyph-name="cp-number" unicode="&#xe610;" 
d="M705 -26q-64 0 -169 65q-100 61 -195 154v0l-20 20q-92 95 -154 194q-64 105 -64 169q0 63 57 140q11 14 24 28.5t36 31.5t42 17q24 0 57 -35q25 -26 54 -67q27 -39 46 -73q21 -41 21 -61q0 -26 -27 -45q-12 -8 -39 -20q-24 -10 -30 -15q5 -19 34 -62q34 -50 74 -91
q41 -41 92 -75q42 -29 62 -33q4 5 15 29q12 28 20 40q18 26 44 26q20 0 61 -21q35 -19 74 -46q41 -28 66 -53q36 -34 36 -58q0 -18 -17 -41.5t-31.5 -36t-29.5 -23.5q-77 -58 -139 -58v0zM375 227q91 -89 186 -147q94 -58 144 -58q45 0 108 47q27 20 45 40q12 15 15 23
q-4 9 -25.5 29.5t-59.5 46.5q-35 24 -65 39q-26 14 -37 16q-3 -2 -7.5 -9.5t-13.5 -27.5q-10 -25 -17 -35q-16 -24 -39 -24h-1q-30 0 -91 42q-55 37 -99 80v1q-43 44 -80 98q-42 61 -43 91q0 24 25 40q10 7 34 18q20 8 27.5 12.5t10.5 7.5q-2 11 -16 37q-16 31 -40 65
q-26 38 -46 59.5t-29 25.5q-9 -2 -24 -15q-20 -18 -40 -44q-46 -63 -46 -109q0 -50 58 -143q58 -95 147 -187l19 -19v0zM375 227z" />
    <glyph glyph-name="duihua1" unicode="&#xe659;" 
d="M963 366q0 104 -60 192.5t-163 140t-224.5 51.5t-225 -51.5t-163.5 -140t-60 -192.5q0 -88 45.5 -166.5t127.5 -134.5q11 -7 24 -4.5t20.5 13.5t5 24t-13.5 20q-69 47 -107 112t-38 136q0 86 51.5 160t140 117t192.5 43t192.5 -43t140 -117t51.5 -160.5t-51.5 -160
t-140 -116.5t-192.5 -43q-1 0 -3 -0.5t-3 -0.5q-11 2 -21.5 -3.5t-13.5 -17.5q-9 -25 -94 -73q17 58 3 79q-11 16 -30 16q-13 0 -22.5 -9.5t-9.5 -22.5q0 -10 4 -16q-5 -33 -33 -100q-8 -20 8 -35q9 -9 22 -9q6 0 13 3q144 64 187 125q120 2 221.5 53.5t160.5 139.5t59 191z
" />
    <glyph glyph-name="zhuanjia" unicode="&#xe62f;" 
d="M913 13q5 -16 8 -39.5t3 -48t-4 -45.5q-4 -22 -11 -33q-6 -7 -28.5 -14.5t-56.5 -13.5q-33 -6 -76 -11q-42 -6 -84 -10t-82 -5q-41 -2 -69 -2q-30 0 -69 2q-43 3 -81 6q-41 3 -82 8q-42 4 -75 9q-32 6 -57 11q-24 5 -29 10q-10 8 -15.5 49.5t4.5 107.5q5 38 30 57.5
t57.5 31t68.5 20.5t62 27q21 13 32.5 25.5t16.5 24.5t5 25q0 12 -1 30q-2 24 -16 37q-13 13 -30 28q-9 6 -15 19l-12 26q-5 15 -10 32q-2 2 -6 8t-8 15t-10 27q-5 17 -7 31t0 24q2 12 6 21q0 39 4 77q5 32 15 70q10 37 32 67q20 28 43 46t47.5 28t50 14t49.5 4
q25 -3 41 -6.5t26 -9t17 -13.5t15 -16h21q10 0 19 -2.5t18.5 -10t20.5 -22.5q26 -33 38 -72t18 -75q5 -40 6 -80q2 -6 3 -13.5t2 -18.5t-2 -28q-2 -22 -6 -35q-5 -12 -10 -19q-6 -8 -12 -11q-5 -17 -10 -32l-12 -26t-15 -19q-18 -15 -31 -26q-12 -11 -16 -36q-3 -15 -2 -31
q1 -15 8 -31t23 -30.5t45 -25.5q25 -10 56 -18q30 -8 58 -19t50 -27.5t31 -42.5v0zM559 49q3 7 0.5 14t-8.5 14t-13 14h-51q-7 -7 -12 -14q-4 -6 -7 -12.5t0 -11.5q9 -18 14 -27q5 -12 12 -19l-7 -28q-5 -20 -8 -37q-4 -18 -7 -37q-3 -17 -3 -26q0 -5 5 -13q5 -7 12 -16
q7 -8 14 -13.5t12.5 -5.5t13.5 5.5t15 12.5t12 15.5t5 13.5q0 7 -4 23q-2 13 -7 36q-3 19 -8 38q-4 19 -8 30q7 6 13 16t15 28v0zM559 49z" />
    <glyph glyph-name="quanping1" unicode="&#xe65a;" 
d="M913 -147h-185q-19 0 -32.5 13.5t-13.5 32.5t13.5 32.5t32.5 13.5h73l-230 230v0q-13 14 -13 33t13.5 32.5t32.5 13.5t32 -13h1l230 -230v73q0 19 13.5 32.5t32.5 13.5t32.5 -13.5t13.5 -32.5v-185q0 -19 -13.5 -32.5t-32.5 -13.5zM913 470q-19 0 -32.5 13.5t-13.5 32.5
v74l-230 -230h-1q-13 -13 -32 -13t-32.5 13.5t-13.5 32.5t13 32v0l230 230h-73q-19 0 -32.5 13.5t-13.5 33t13.5 33t32.5 13.5h185q19 0 32.5 -13.5t13.5 -32.5v-186q0 -19 -13.5 -32.5t-32.5 -13.5zM452 175l-230 -230h74q19 0 32.5 -13.5t13.5 -32.5t-13.5 -32.5
t-32.5 -13.5h-186q-19 0 -32.5 13.5t-13.5 32.5v185q0 19 13.5 32.5t32.5 13.5t33 -13.5t14 -32.5v-73l230 230v0q13 13 32 13t32.5 -13.5t13.5 -32.5t-13 -33v0zM419 347q-19 0 -32 13v0l-230 230v-74q0 -19 -13.5 -32.5t-33 -13.5t-33 13.5t-13.5 32.5v186q0 19 13.5 32.5
t32.5 13.5h186q19 0 32.5 -13.5t13.5 -33t-13.5 -33t-32.5 -13.5h-74l230 -230v0q13 -13 13 -32t-13.5 -32.5t-32.5 -13.5z" />
    <glyph glyph-name="nv" unicode="&#xe6a1;" 
d="M800 460q0 119 -84 203.5t-203.5 84.5t-204 -84.5t-84.5 -203.5q0 -111 73.5 -192.5t182.5 -93.5v-98h-144q-7 0 -11.5 -5t-4.5 -11v-32q0 -7 4.5 -11.5t11.5 -4.5h144v-144q0 -7 4.5 -11.5t11.5 -4.5h32q7 0 11.5 4.5t4.5 11.5v144h112q7 0 11.5 4.5t4.5 11.5v32
q0 6 -4.5 11t-11.5 5h-112v98q109 12 182.5 93.5t73.5 192.5zM288 460q0 93 65.5 158.5t158.5 65.5t158.5 -65.5t65.5 -158.5t-65.5 -158.5t-158.5 -65.5t-158.5 65.5t-65.5 158.5z" />
    <glyph glyph-name="fangkuai1" unicode="&#xe611;" horiz-adv-x="1366" 
d="M614 467q0 -6 -4.5 -11t-11.5 -5h-375q-7 0 -11.5 5t-4.5 11v376q0 6 4.5 11t11.5 5h375q7 0 11.5 -5t4.5 -11v-376zM1159 467q0 -6 -4.5 -11t-11.5 -5h-375q-7 0 -11.5 5t-4.5 11v376q0 6 4.5 11t11.5 5h375q7 0 11.5 -5t4.5 -11v-376zM614 -78q0 -7 -4.5 -11.5
t-11.5 -4.5h-375q-7 0 -11.5 4.5t-4.5 11.5v375q0 7 4.5 11.5t11.5 4.5h375q7 0 11.5 -4.5t4.5 -11.5v-375zM1159 -78q0 -7 -4.5 -11.5t-11.5 -4.5h-375q-7 0 -11.5 4.5t-4.5 11.5v375q0 7 4.5 11.5t11.5 4.5h375q7 0 11.5 -4.5t4.5 -11.5v-375z" />
    <glyph glyph-name="renzheng" unicode="&#xe630;" 
d="M937 662l-42 1q-9 0 -29.5 1.5t-70.5 12t-93 28.5q-44 18 -86.5 40.5t-58 32.5t-20.5 14l-25 19l-25 -19q-65 -47 -165 -87q-43 -18 -93 -28.5t-70.5 -12t-29.5 -1.5l-42 -1v-428q0 -61 30 -127.5t77.5 -121t103.5 -99t113 -69.5t101 -25t101 25t113 69.5t104 99
t77.5 121t29.5 127.5v428zM465 115l-181 153l56 66l115 -99l220 253l65 -56z" />
    <glyph glyph-name="xinjian" unicode="&#xe612;" 
d="M836 343h-284v-284h-80v284h-284v81h284v283h80v-283h284v-81z" />
    <glyph glyph-name="nan" unicode="&#xe6a2;" 
d="M608 800v-93h195l-191 -206q-73 51 -165 63.5t-183 -17.5t-156 -100q-71 -77 -93.5 -177.5t8 -199t107 -170t176.5 -93.5t198 8t170 107q100 109 105 250.5t-93 259.5l201 217v-221h93v372h-372v0zM602 -12q-80 -86 -198 -90.5t-204.5 76t-90.5 198.5t76 204t198 90.5
t204.5 -75.5t90.5 -198t-76 -205v0v0zM602 -12z" />
    <glyph glyph-name="dizhi" unicode="&#xe613;" 
d="M529 881q-99 0 -183 -50t-132.5 -135.5t-48.5 -186.5q0 -117 65 -212q4 -8 6 -10l248 -319q18 -25 45 -25t45 25l249 319q2 3 6 10q65 95 65 212q0 101 -49 186.5t-133 135.5t-183 50v0v0zM769 339l-2 -3l-2 -3l-1 -2l-235 -302l-235 302l-1 3l-2 3l-2 2q-51 76 -51 170
q0 123 85 210t206 87t206.5 -87t85.5 -210q0 -94 -52 -170v0v0zM529 657q-60 0 -103 -43.5t-43 -105t43 -105t103.5 -43.5t103 43.5t42.5 105t-42.5 105t-103.5 43.5v0v0zM529 434q-30 0 -51.5 22t-21.5 52.5t21.5 52.5t51.5 22t51.5 -22t21.5 -52.5t-21.5 -52.5t-51.5 -22
v0v0zM725 27z" />
    <glyph glyph-name="guanchapingjia" unicode="&#xe65b;" 
d="M963 -180q-11 0 -19 8l-135 136q-8 8 -8 19t7.5 19t18.5 8t19 -8l136 -136q7 -8 7 -19t-7.5 -19t-18.5 -8zM530 -127q-42 0 -79 33q-46 42 -128 119l-3 2l-56 11q-104 19 -129 24q-54 10 -78 57q-24 48 1 102q8 17 18.5 39.5t20 43t18 38t14 28.5l5.5 11l1 5l1 6
q-15 118 -21 176q-6 51 29 89q33 38 83 38q7 0 11 -1q63 -6 178 -20h4l8 2l3 2q105 51 156 74q25 12 51 12q41 0 72 -26.5t39 -67.5q11 -58 31 -169l1 -4l15 -17l6 -7q76 -80 102 -108q41 -45 33 -97t-61.5 -83t-153.5 -86l-3 -2l-16 -26l-1 -1q-51 -93 -76 -136
q-34 -61 -96 -61v0v0zM344 81q12 -12 48 -46t64 -59.5t31 -28.5q21 -19 43 -19q30 0 50 34q35 61 96 175q108 58 172 95q32 19 36 45q4 27 -20 52q-43 47 -133 141q-11 69 -35 190q-5 23 -20.5 37t-37.5 14q-14 0 -29 -7q-63 -29 -179 -86q-92 13 -197 23q-3 1 -6 1
q-26 0 -43 -20q-19 -21 -16 -48q7 -65 24 -196q-44 -89 -85 -178q-14 -31 -2 -55t40 -29q62 -12 199 -35z" />
    <glyph glyph-name="pinpai" unicode="&#xe65c;" 
d="M1024 -9q0 -84 -59.5 -143t-143.5 -59h-618q-84 0 -143.5 59t-59.5 143v618q0 84 59.5 143.5t143.5 59.5h618q84 0 143.5 -59.5t59.5 -143.5v-618zM282 120h462v-100h-462v100zM823.5 467q-26.5 0 -45.5 -19t-19 -46q0 -34 28 -53l-124 -108l-35 221q26 1 44.5 19.5
t18.5 45.5t-19 45.5t-46 18.5t-46 -18.5t-19 -45.5q0 -20 11.5 -36.5t29.5 -23.5l-90 -178l-91 178q19 7 31 23.5t12 37.5q0 27 -19 46t-46 19t-46 -19t-19 -46t19 -46t46 -19l-37 -223l-122 109q26 20 26 52q0 27 -19 46t-45.5 19t-45.5 -19t-19 -45.5t19 -45.5t46 -19
q15 0 28 6l52 -198h462l52 199q13 -6 28 -6q26 0 45 19t19 45.5t-19 45.5t-45.5 19z" />
    <glyph glyph-name="zhaopin" unicode="&#xe65d;" horiz-adv-x="1025" 
d="M512 812q-104 0 -199 -40.5t-163.5 -109t-109 -163.5t-40.5 -199t40.5 -199t109 -163.5t163.5 -109t199 -40.5t199 40.5t163.5 109t109 163.5t40.5 199t-40.5 199t-109 163.5t-163.5 109t-199 40.5zM512 -165q-95 0 -181 36.5t-148.5 99t-99 148.5t-36.5 181t36.5 181
t99 148.5t148.5 99t181 36.5t181 -36.5t148.5 -99t99 -148.5t36.5 -181t-36.5 -181t-99 -148.5t-148.5 -99t-181 -36.5zM451 223h78l-18 -85h204q-3 -33 -6 -51q-4 -36 -45 -36q-43 0 -105 3q9 -25 12 -47h106q72 0 78 77q3 38 6 92h-199l11 47h245v37h-367v-37zM527 307
h217v-14h38v232h-127v55h-40v-55h-127v-232h39v14zM655 489h89v-55h-89v55zM655 399h89v-55h-89v55zM527 489h88v-55h-88v55zM527 399h88v-55h-88v55zM427 174v335h39v39h-234v-39h34v-366q-20 -3 -38 -6l10 -46q74 16 148 31v-123h41v132l46 10q-3 26 -4 42q-21 -4 -42 -9z
M386 166q-41 -8 -80 -15v102h80v-87zM386 292h-80v89h80v-89zM386 419h-80v90h80v-90z" />
    <glyph glyph-name="speech3" unicode="&#xe65e;" horiz-adv-x="1106" 
d="M961 18h-197v0h-324v0h-42v0h-11l-114 -115q-12 -13 -30 -13v0v0v0q-18 1 -30 13v0v0q-3 3 -5 6q0 1 -0.5 1.5t-0.5 1.5q-2 3 -3 4v1.5v1.5q-2 3 -2 5q-1 4 -1 9v0v85h-7v0h-49q-18 0 -30.5 12t-12.5 30v607q0 18 12.5 30.5t30.5 12.5h816q18 0 30.5 -12.5t12.5 -30.5
v-607q0 -18 -12.5 -30t-30.5 -12zM342 441q-35 0 -60 -24.5t-25 -60t25 -60t60 -24.5t59.5 24.5t24.5 60t-24.5 60t-59.5 24.5zM553 441q-35 0 -60 -24.5t-25 -60t25 -60t60 -24.5t59.5 24.5t24.5 60t-24.5 60t-59.5 24.5zM764 441q-35 0 -59.5 -24.5t-24.5 -60t24.5 -60
t59.5 -24.5t60 24.5t25 60t-25 60t-60 24.5z" />
    <glyph glyph-name="google" unicode="&#xe6d8;" 
d="M1024 654v-78h-158v-158h-78v158h-158v78h158v158h78v-158h158zM626 42q0 -98 -86 -173q-94 -81 -259 -81q-46 0 -92.5 10.5t-90.5 31.5t-71 60t-27 90q0 38 23 83q19 39 58.5 68t89.5 44t95.5 22t92.5 8q-40 52 -40 92q0 7 1.5 14.5t3 12t5 13t4.5 13.5q-25 -3 -43 -3
q-92 0 -157.5 60t-65.5 151q0 87 58.5 155t144.5 87q57 12 115 12h269l-83 -49h-84q44 -27 68 -77t24 -104q0 -38 -10 -70t-25.5 -51.5t-33.5 -37.5t-33 -31.5t-25.5 -30.5t-10.5 -36q0 -21 19 -42.5t46.5 -42.5t54.5 -46t46 -64.5t19 -87.5zM465 520q0 37 -10 78.5t-29 80
t-52 64t-73 25.5q-57 0 -88.5 -42.5t-31.5 -101.5q0 -50 19 -104t60 -95t92 -41q59 0 86 37t27 99zM539 -11q0 14 -2.5 27t-9 25.5t-11 22t-17 21.5t-18 18t-21.5 18t-20.5 15.5t-23 16t-20.5 14.5q-11 1 -31 1q-33 0 -65 -4t-66.5 -15.5t-60.5 -28.5t-42.5 -46t-16.5 -66
q0 -42 22 -75t57 -51.5t74 -27.5t78 -9q37 0 69.5 7.5t61.5 23.5t46 45.5t17 67.5z" />
    <glyph glyph-name="ziyuan1" unicode="&#xe6a3;" 
d="M989 482l-477 330l-477 -330l477 -330l477 330v0v0zM512 78l-421 281l-56 -59l477 -330l477 330l-56 60l-421 -282v0v0zM512 -104l-421 281l-56 -59l477 -330l477 330l-56 60l-421 -282v0v0zM512 -104z" />
    <glyph glyph-name="morentouxiang" unicode="&#xe65f;" 
d="M731 447.5q0 90.5 -64 155t-155 64.5t-155 -64.5t-64 -155t64 -154.5t155 -64t155 64t64 154.5zM0 812v-1024h111v21q0 81 31 156q31 72 86.5 127.5t127.5 85.5q19 9 39 15q-45 21 -81 57q-82 82 -82 198t82 198t198 82t198 -82t82 -198t-82 -198q-36 -36 -81 -57
q20 -6 39 -15q72 -30 127.5 -85.5t86.5 -127.5q31 -75 31 -156v-21h111v1024h-1024zM272 49q-47 -47 -73 -108q-27 -63 -27 -132v-21h680v21q0 69 -27 132q-26 61 -73 108t-108 73q-63 27 -132 27t-132 -27q-61 -26 -108 -73z" />
    <glyph glyph-name="qikan" unicode="&#xe614;" 
d="M0 -128v1024h614h267h143v-1024h-1024zM840 855h-185v-304l104 86l81 -81v299zM983 855h-102v-398l-124 125l-143 -119v392h-573v-942h942v942zM881 364h-738v40h738v-40zM881 200h-738v41h738v-41zM881 36h-738v41h738v-41zM149 724h324v-226h-324v226zM190 538h241v147
h-241v-147z" />
    <glyph glyph-name="news" unicode="&#xe615;" 
d="M386 711q-60 -23 -109 -65.5t-81 -99.5h134q18 96 56 165zM502 546v188q-41 -2 -83 -13q-42 -71 -62 -175h145zM830 546q-64 116 -185 163q37 -68 56 -163h129zM611 721q-40 11 -82 13v-188h145q-20 103 -63 175zM644 34q122 47 186 164h-130q-18 -96 -56 -164zM529 198
v-187q44 2 82 12q42 70 62 175h-144zM197 198q31 -57 80 -99.5t110 -65.5q-38 68 -57 165h-133zM420 23q42 -11 82 -13v188h-145q21 -106 63 -175zM232 261v234h-29v-184l-123 184h-32v-234h30v184l123 -184h31zM454 467v28h-169v-234h174v27h-143v80h129v27h-129v72h138z
M543 261h32l49 178q3 11 7 27q1 -5 7 -27l50 -178h29l65 234h-32l-36 -151q-7 -28 -12 -50q-5 38 -18 82l-34 119h-37l-44 -158q-2 -6 -11 -43q-4 23 -10 47l-35 154h-32zM976 360.5q-10 14.5 -30 23.5q-14 6 -51.5 14.5t-46.5 17t-9 20.5q0 15 12.5 25t40.5 10q27 0 41 -11
t16 -33l30 2q-1 20 -11.5 36.5t-30.5 25t-46 8.5q-24 0 -43 -8t-29 -23.5t-10 -33.5q0 -16 8 -29t25 -22q13 -7 45 -14.5t42 -11.5q14 -5 20.5 -13.5t6.5 -19t-6.5 -20t-20 -14.5t-31.5 -5q-20 0 -36 7t-23.5 18t-9.5 29l-29 -3q0 -23 12.5 -42t34 -28t52.5 -9q26 0 46 9
t30.5 25.5t10.5 35.5t-10 33.5z" />
    <glyph glyph-name="zanzan" unicode="&#xe660;" 
d="M672 -88q-61 0 -104.5 6t-61.5 12t-47 20q-67 31 -154 43v-25h-137q-37 0 -61 35q-20 31 -20 74v336q0 42 20 73q24 36 61 36h137v-19q143 49 242 124q57 44 85 88q27 44 21 84q-4 23 13 42q14 17 34 17q25 0 51.5 -13.5t42.5 -42.5q27 -47 13 -120q-14 -69 -64 -160h125
q41 0 62 -33q16 -26 16 -64q0 -60 -31 -97q1 -1 1 -2q11 -20 11 -51q0 -45 -20 -87q-13 -26 -31 -40v-12q0 -41 -20 -84q-20 -40 -49 -52q-8 -39 -44 -63q-38 -25 -91 -25zM309 42q45 -5 80.5 -14t51 -15.5t39.5 -17.5q26 -12 42 -17.5t55 -10.5t95 -5q35 0 61 15t26 44v25
h25q8 0 18 14q14 19 21 49q6 26 3 35q3 -8 14 -8v50q10 0 22 25q15 31 15 64q0 18 -4 26q-2 3 -5 3v50q7 0 16 17q12 24 12 54q0 24 -8 37q-7 10 -20 10h-212l23 38q35 59 55 107t24 79.5t2 50t-9 30.5q-16 29 -48 31v-2q17 -109 -126 -218q-112 -86 -272 -137zM168 472
q-12 0 -21.5 -17.5t-9.5 -41.5v-336q0 -24 9.5 -41.5t21.5 -17.5h87v454h-87z" />
    <glyph glyph-name="grxx" unicode="&#xe6a4;" 
d="M512 601h324q24 0 36 -2q87 -11 87 -95q1 -222 0 -425q0 -46 -29 -75t-77 -29q-367 -1 -684 0q-48 0 -76 27.5t-28 73.5q-1 213 0 423q1 101 106 102h341v0zM413 119v80q-2 24 -19 42.5t-41 20.5q-63 4 -128 0q-22 -1 -37.5 -14.5t-19.5 -34.5q-2 -14 -3 -29t-1.5 -35
t-0.5 -30h250v0zM365 387q0 30 -22 51t-54 21t-54 -21t-22 -52t22 -52.5t54 -21.5q32 1 54 22.5t22 52.5v0zM661 248h118q33 0 34 25q2 29 -32 30q-125 1 -239 -1q-33 0 -32 -29q1 -25 35 -25h116v0zM661 157h118q33 1 34 26q2 29 -32 29q-125 1 -239 0q-33 0 -32 -30
q1 -24 35 -25h116v0zM704 346h75q16 0 25 7t9 19q-1 25 -32 25q-79 2 -157 0q-14 0 -23 -8t-8 -18q4 -25 34 -25h38.5h38.5v0zM704 312z" />
    <glyph glyph-name="zixun" unicode="&#xe661;" horiz-adv-x="1238" 
d="M604 812q1 0 -87 -88t-176.5 -176l-88.5 -88h-96q-53 0 -74.5 -21.5t-21.5 -74.5v-128q0 -53 21.5 -74.5t74.5 -21.5h96q22 -22 59 -58.5t114 -113.5l128.5 -128.5t50.5 -51.5q40 0 68 28t28 68v832q0 40 -28 68t-68 28v0zM636 -116q0 -15 -12 -25l-30 30l-121 121
l-176 175l-19 19h-122q-20 0 -29 3q-3 9 -3 29v128q0 20 3 29q9 3 29 3h122l19 19q88 87 176 175q76 75 121 121l30 30q12 -10 12 -25v-832v0zM944 643q-9 9 -21.5 8.5t-21.5 -10t-9 -22.5t10 -22q58 -60 89.5 -137t31.5 -163q0 -83 -30 -159t-87 -135q-9 -9 -9 -22.5t9 -23
t21.5 -9.5t21.5 10q65 68 100 155.5t35 183.5q0 99 -36 188t-104 158v0zM849 452q-10 9 -23.5 8t-22 -12t-7.5 -24.5t12 -21.5q50 -43 50 -103q0 -59 -48 -101q-11 -9 -12 -22.5t8 -23.5q10 -12 25 -12q12 0 21 8q71 62 71 151q0 43 -19 83.5t-55 69.5v0zM849 452z" />
    <glyph glyph-name="write" unicode="&#xe627;" 
d="M361 132l211 60l-151 150zM924 542l-150 150l-332 -329l151 -150zM880 -12q0 -39 -27.5 -66.5t-66.5 -27.5h-565q-39 0 -66.5 27.5t-27.5 66.5v565q0 39 27.5 66.5t66.5 27.5h377l94 94h-502q-65 0 -111 -45.5t-46 -111.5v-628q0 -65 46 -111t111 -46h628q65 0 111 46
t46 111v503l-95 -94v-377v0zM994 668l-94 93q-12 12 -29 11.5t-29 -12.5l-45 -45l150 -150l45 45q13 12 13.5 29t-11.5 29v0z" />
    <glyph glyph-name="qiyexinwen" unicode="&#xe662;" 
d="M722 719h-420q-86 0 -147.5 -61.5t-61.5 -147.5v-420q0 -86 61.5 -147.5t147.5 -61.5h420q86 0 147.5 61.5t61.5 147.5v419q0 87 -61.5 148.5t-147.5 61.5zM725 103q0 -16 -11.5 -27.5t-27.5 -11.5h-348q-16 0 -27.5 11.5t-11.5 27.5v394q0 16 11.5 27.5t27.5 11.5h265
l122 -124v-309zM595 516h-254q-8 0 -13.5 -5.5t-5.5 -13.5v-394q0 -8 5.5 -13.5t13.5 -5.5h348q8 0 13.5 5.5t5.5 13.5v295h-74q-16 0 -27.5 11.5t-11.5 28.5v78zM381 437h116v-21h-116v21zM381 384h116v-20h-116v20zM381 332h116v-21h-116v21zM648 163h-267v21h267v-21z
M648 252v-21h-267v21h267zM633 419h59l-78 79v-60q0 -8 5.5 -13.5t13.5 -5.5z" />
    <glyph glyph-name="jiahao" unicode="&#xe6a5;" 
d="M1013 388h-413v412h-175v-412h-413v-175h413v-413h175v413h413v175z" />
    <glyph glyph-name="zhengcefagui" unicode="&#xe663;" 
d="M97 735h816h47v-47v-626v-39h-53h-53l-13 27q4 6 6 10.5t3.5 10t2 8.5t1 11t0.5 12h27v554h-738v-554h356q3 -14 6.5 -21.5t10 -16t9.5 -14.5l-13 -27h-395h-53v39v626v47h33v0zM779 34q29 34 29 79q0 50 -35.5 85.5t-85.5 35.5t-85.5 -35.5t-35.5 -85.5q0 -45 29 -79
l-43 -114l60 4l43 -43l32 83l37 -99l44 43l60 -3zM687 27q-25 0 -44 14t-28 36q31 -22 75 -22q37 0 65 16q-9 -20 -27.5 -32t-40.5 -12zM758 98q-6 36 -35 65q-24 24 -54 33q43 14 75 -17q16 -16 19.5 -38.5t-5.5 -42.5zM222 353v-53h580v53h-580zM512 458v-53h290v53h-290z
M512 590v-53h290v53h-290zM222 589h224v-184h-224v184z" />
    <glyph glyph-name="tongji" unicode="&#xe6a6;" 
d="M112 748h32v-864h768v-32h-800v896zM400 364v-416h-192v224zM656 332v-384h-192v416l96 -128zM912 524v-576h-192v416zM240 300l-32 32l224 224l128 -128l256 224l-64 64h160v-160l-64 64l-288 -256l-128 128z" />
    <glyph glyph-name="huishouzhan" unicode="&#xe6a7;" 
d="M983 598h-74v-719q0 -29 -13 -52t-37 -23h-694q-24 0 -37 23t-13 52v719h-74q-13 0 -19.5 12t-5.5 31q1 13 10 22t21 9h124h168v74q0 33 8.5 41.5t40.5 8.5h248q32 0 41 -8.5t9 -41.5v-74h167h124q13 0 22 -9t9 -22q0 -18 -6.5 -30.5t-18.5 -12.5zM611 746h-198v-74h198
v74zM834 538v30v30h-30h-584h-30v-30v-30v-630q0 -12 9 -20.5t21 -8.5h584q13 0 21.5 8.5t8.5 20.5v630zM686 399h49v-372h-49v372zM487 474h50v-447h-50v447zM289 399h50v-372h-50v372z" />
    <glyph glyph-name="linkedin" unicode="&#xe6f0;" 
d="M260 740q0 -41 -29.5 -69.5t-76.5 -28.5q-45 0 -74 28.5t-29 69.5q0 43 29 71t76 28t74.5 -28t29.5 -71v0zM57 -69v633h197v-633h-197v0zM371 361q0 89 -4 203h170l10 -88h4q61 103 194 103q103 0 165.5 -69t62.5 -204v-375h-197v351q0 137 -100 137q-72 0 -101 -74
q-6 -12 -6 -49v-365h-198v430v0v0z" />
    <glyph glyph-name="yinyong" unicode="&#xe6c6;" 
d="M289 319q-23 0 -39.5 -17t-16.5 -41t16.5 -40.5t39.5 -16.5t39.5 16.5t16.5 40.5t-16.5 41t-39.5 17v0v0zM512 319q-23 0 -39.5 -17t-16.5 -41t16.5 -40.5t39.5 -16.5t39.5 16.5t16.5 40.5t-16.5 41t-39.5 17v0v0zM735 319q-23 0 -39.5 -17t-16.5 -41t16.5 -40.5
t39.5 -16.5t39.5 16.5t16.5 40.5t-16.5 41t-39.5 17v0v0zM177 -33h670q46 0 78.5 33.5t32.5 81.5v434q0 49 -33.5 86t-80.5 37h-170l-152 158q-10 10 -20 0q-90 -102 -148 -158h-174q-47 0 -80.5 -37t-33.5 -86v-434q0 -48 32.5 -81.5t78.5 -33.5v0v0zM122 516q0 25 17.5 45
t40.5 20h171q9 0 19 5.5t15 10.5l5 6l120 124l121 -124q22 -22 42 -22h171q23 0 40.5 -20t17.5 -45v-434q0 -24 -16 -41t-39 -17h-670q-23 0 -39 17t-16 41v434v0v0z" />
    <glyph glyph-name="quanping2" unicode="&#xe664;" 
d="M844 828h-669q-46 0 -78.5 -32.5t-32.5 -78.5v-668q0 -47 32.5 -79.5t78.5 -32.5h669q46 0 78.5 32.5t32.5 79.5v668q0 46 -32.5 78.5t-78.5 32.5zM398 160q12 0 20 -8t8 -19.5t-8 -20t-20 -8.5h-138q-12 0 -20 9q-9 7 -9 19v139q0 12 8 20t19.5 8t20 -8t8.5 -20l-1 -71
l133 133l40 -40l-134 -133h73zM419 432l-133 133l1 -71q0 -12 -8.5 -20t-20 -8t-19.5 8t-8 20v139q0 12 9 20q8 8 20 8h138q12 0 20 -8t8 -19.5t-8 -20t-20 -8.5h-73l134 -133zM788 132q0 -12 -9 -19q-8 -9 -20 -9h-138q-12 0 -20 8.5t-8 20t8 19.5t20 8h73l-134 133l40 40
l133 -133l-1 71q0 12 8.5 20t20 8t19.5 -8t8 -20v-139zM788 494q0 -12 -8 -20t-19.5 -8t-20 8t-8.5 20l1 71l-133 -133l-40 40l134 133h-73q-12 0 -20 8.5t-8 20t8 19.5t20 8h138q12 0 20 -8q9 -8 9 -20v-139z" />
    <glyph glyph-name="wen" unicode="&#xe665;" 
d="M370 547q43 -136 148 -236q89 97 131 236h-279zM903 831h-782q-24 0 -40 -16t-16 -40v-782q0 -23 16 -39.5t40 -16.5h782q23 0 39.5 16.5t16.5 39.5v782q0 24 -16.5 40t-39.5 16zM792 91q-166 62 -274 156q-115 -106 -286 -155l-25 42q169 46 277 144q-116 114 -161 269
h-104v48h278q-28 55 -67 101l48 17q36 -45 70 -118h256v-48h-105q-49 -159 -148 -266q106 -90 268 -150z" />
    <glyph glyph-name="45816" unicode="&#xe616;" 
d="M802 812q0 35 -24.5 59.5t-59.5 24.5h-576q-33 0 -56.5 -23.5t-23.5 -56.5v-700q0 -34 24.5 -59t58.5 -25h573q35 0 59.5 25t24.5 59v696v0zM719 180q0 -27 -19 -45.5t-45 -18.5h-446q-27 0 -45.5 18.5t-18.5 45.5v571q0 26 18.5 45t45.5 19h446q26 0 45 -19t19 -45v-571
v0zM835 736v-84q19 0 32.5 -13.5t13.5 -32.5v-607q0 -19 -13.5 -32.5t-32.5 -13.5h-486q-18 0 -30.5 13t-12.5 31h-82v-41q0 -35 24.5 -59.5t59.5 -24.5h571q34 0 58.5 24.5t24.5 59.5v696q0 34 -24.5 59t-58.5 25h-44zM251 626h369q18 0 30 11.5t12 28.5t-12 29t-30 12
h-369q-17 0 -29 -12t-12 -29t12 -28.5t29 -11.5zM251 489h369q18 0 30 12t12 29t-12 29t-30 12h-369q-17 0 -29 -12t-12 -29t12 -29t29 -12zM251 353h369q18 0 30 12t12 29t-12 29t-30 12h-369q-17 0 -29 -12t-12 -29t12 -29t29 -12zM251 221h369q18 0 30 12t12 29t-12 29
t-30 12h-369q-17 0 -29 -12t-12 -29t12 -29t29 -12z" />
    <glyph glyph-name="zhengcefagui1" unicode="&#xe666;" horiz-adv-x="1027" 
d="M487 322q0 8 -6.5 14t-14.5 6h-136q-9 0 -15 -5.5t-6 -14.5t6 -15t15 -6h136q9 0 15 6t6 15v0zM738 376v0q-35 35 -83.5 35t-83.5 -35t-35 -83q0 -26 9 -45l-75 -131q-5 -7 -3 -17q2 -9 9.5 -13t16.5 -2l58 16l16 -60q3 -9 10 -12q8 -4 16 -2t13 10l48 83l47 -82
q3 -7 14 -11q8 -2 15.5 2t10.5 12l16 60l58 -16q8 -1 16 2q8 4 10 12.5t-2 16.5l-76 130q10 24 10 46q0 49 -35 84v0zM636 173v0l-41 -71l-9 31q-1 8 -9 12.5t-17 1.5v0l-30 -8l40 69v0q24 -26 65 -34v0v0l1 -1v0zM591 250v0l-1 1v0q-13 19 -13 42q0 31 23 53.5t54.5 22.5
t54 -22.5t22.5 -54t-22 -52.5l-1 -1q-24 -26 -61.5 -23t-55.5 34v0zM778 139v0l-30 9q-9 2 -16.5 -2.5t-9.5 -11.5l-8 -31l-41 71l-1 2v0v0h1v0q39 8 65 33v0l40 -70v0zM923 586v0l-253 255q-12 10 -25 10h-415q-37 0 -66 -27q-28 -27 -28 -67v-724q0 -37 28 -66v0v0
q27 -27 66 -27h609q38 0 65 27v0v0q28 27 28 66v529q3 15 -9 24v0zM665 745v0l163 -163h-124q-14 0 -27 12l-1 1q-11 10 -11 26v124v0zM864 33v0q0 -10 -7 -17q-8 -8 -17 -8h-609q-9 0 -17 8q-6 7 -6 17v724q0 10 6.5 17t16.5 7h394v-159q0 -31 22 -55l3 -3q23 -23 56 -23
h160v-508h-2zM330 491v0v0h-1v0v0v0v0v0v0v0v0v0v0v0v0v0v0v0v0v0v0v0v0v0v0v0v-1v0v0v0h-1v0v0v0v0v0v0v0v0v0v0v0v0v0v0v-1v0v0v0h-1v0v0v0v0v-1v0v0v0v0v0v0v0v0v0v0v0v0v0v0v0v0v0v0v-1v0v0v0v0v0v0v0v0v0v0v0v0v0v0v0v0v0v0v0v0v0v0h1v0v0v0v0v0v0v0v0v0v0v0v0v0v0v0v0
v0h1v0v0v0v0v0v-2v0v0v0v0v0v0v0v0v0v0v0v0v0v0v0v0v0v0v0v0v0v0h1h2v0h407v0v0v0v0v0v0v0h1v0v0v0v0v0v0h1v0v0v0v0v0h1v0v0v0v0v2v0v0v0v0v0v0v0v0v0v0v0h1v0v0v0v0v0v0v0v0v0v0v0v0v0v0v0v0v0v0v0v0v0v0v0v0v0v0v0v0v0v0v0v0v0v1v0v0v0v0v0v0v0v0v0v0v0v0v0v0v0v0v0v0v1
v0v0v0v0v0v0v0v0v1v0v0v0v0v0v0v0h-1v0v0v0v0v0v0v0v0v0v0v1v0v0v0v0v0h-1v0v0v0v0h-1v0v0v0v0v0v0h-1v0v0v0v0v0v0v0v0h-409v0v0zM332 597v0h225q9 0 15.5 6t6.5 16q0 8 -6.5 14.5t-15.5 6.5h-225q-10 0 -16 -6.5t-6 -14.5q0 -10 6 -16t16 -6v0z" />
    <glyph glyph-name="pinpai1" unicode="&#xe667;" 
d="M507.5 137q-92.5 0 -171 45.5t-124 124.5t-45.5 171t45.5 170.5t124 124.5t171 46t171 -46t124 -124.5t45.5 -170.5t-45.5 -171t-124 -124.5t-171 -45.5zM507.5 783q-126.5 0 -216 -89.5t-89.5 -215.5t89.5 -215.5t216 -89.5t216 89.5t89.5 215.5t-89.5 215.5t-216 89.5z
M810 -47l-164 164q-5 5 -5 12.5t5.5 12.5t12.5 5t13 -5l102 -103v97h97l-91 91q-5 5 -5 12.5t5 12.5t12.5 5t12.5 -5l152 -152h-147v-147zM205 -47v147h-147l152 152q5 5 12.5 5t12.5 -5t5 -12.5t-5 -12.5l-91 -91h97v-97l102 103q6 5 13 5t12.5 -5t5.5 -12.5t-5 -12.5z
M372 291v354h157q47 0 72 -9.5t39.5 -33.5t14.5 -54q0 -37 -24.5 -63t-75.5 -33q19 -9 29 -18q20 -18 39 -47l61 -96h-59l-47 74q-21 32 -33 48q-14 17 -24.5 24t-21.5 9q-8 2 -26 2h-54v-157h-47v0zM419 489h101q32 0 50 6.5t27.5 21t9.5 31.5q0 26 -18 42t-58 16h-112
v-117z" />
    <glyph glyph-name="qiye" unicode="&#xe6a8;" 
d="M695 -20v587h220v-585h-220v-2zM109 -20v807h512v-805h-512v-2zM988 -20v659h-293v220h-659v-877h-36v-72h1024v72h-36v-2zM403 311h147v-109h-147v109zM183 311h148v-109h-148v109zM768 311h73v-109h-73v109zM768 492h73v-109h-73v109zM403 492h147v-109h-147v109z
M183 492h148v-109h-148v109zM403 676h147v-109h-147v109zM183 676h148v-109h-148v109z" />
    <glyph glyph-name="fanyifuwu" unicode="&#xe668;" 
d="M264 223q-2 -3 -3 -7t-2.5 -6t-4.5 -3q-9 -5 -50 -5h-23v-32h282v32h-8q-32 0 -39 4q-16 10 -20 17q-6 13 -6 54v416h45q44 0 68 -12q28 -13 46 -38q20 -29 30 -76h20v178h-533v-178h27q10 64 47 98q13 12 40 20t56 8h29v-416q0 -52 -1 -54zM624 183l109 31l-77 78z
M443 417v-195h52v183q0 20 19 39t40 19h193l49 52h-260q-34 0 -63.5 -32t-29.5 -66zM916 396l-78 77l-172 -170l78 -78zM892 111q0 -21 -12 -33.5t-32 -12.5h-294q-22 0 -40.5 13t-18.5 33v27h-52v-45q0 -32 28 -50.5t65 -18.5h328q34 0 52 17.5t18 51.5v260l-42 -49v-193z
M952 461l-49 48q-6 6 -15 5.5t-15 -6.5l-23 -23l78 -78l23 24q6 6 6.5 15t-5.5 15z" />
    <glyph glyph-name="wangzhi" unicode="&#xe631;" 
d="M981 669q8 30 10 63t-5 69t-34 61.5t-71 31.5q-116 16 -285 -96q-34 5 -66 5q-121 2 -206.5 -40t-154.5 -132q-27 -34 -46.5 -87t-26.5 -114q41 69 137 155t200 127q-10 -7 -25.5 -19t-60.5 -52.5t-85 -83t-87 -107t-78 -129.5v0v-2v-1q-12 -28 -14 -32q-31 -78 -43 -144
t-6.5 -110.5t23 -78.5t40 -51.5t48.5 -24.5q59 -15 132 13.5t135 94.5q71 -17 141.5 -12.5t120 17t80.5 29.5q76 42 125.5 110.5t62.5 145.5h-278q-1 -3 -2.5 -9t-11.5 -21.5t-25.5 -27.5t-47.5 -22t-74 -10q-28 0 -51 9t-37.5 23t-25.5 31t-16.5 34t-8.5 31t-4 23v9h590
q1 7 1 19t-2.5 47.5t-9 69t-23 75.5t-39.5 74q-81 109 -201 150q68 50 114 62q57 15 96.5 4t63.5 -51q13 -21 15 -54.5t-4 -66.5t-14 -62.5t-14 -48.5l-7 -18q33 51 55 124zM370 -3q-56 -45 -108 -61t-88 -6t-55 40q-25 39 -26.5 104t26.5 158q29 -77 87 -134
q70 -69 164 -101zM366 491q0 5 1.5 12.5t9 27.5t19.5 36t38 30.5t60 16.5q154 13 179 -128z" />
    <glyph glyph-name="huishouzhan1" unicode="&#xe6a9;" 
d="M864 717q-10 0 -18 -8t-8 -18v-736q0 -14 -11.5 -23t-26.5 -9h-531q-15 0 -27 9t-12 23v736q0 10 -8 18t-17 8t-14 -7.5t-5 -18.5v-736q0 -33 24.5 -58t58.5 -25h531q34 0 58.5 25t24.5 58v736q5 9 -2 17.5t-17 8.5zM928 787h-250v64q0 19 -12.5 32t-31.5 13h-192
q-20 0 -32.5 -13t-12.5 -32v-64h-250q-9 0 -17 -8t-8 -17.5t8 -17.5t17 -8h781q10 0 18 8t8 17.5t-8 17.5t-18 8zM627 787h-179v58h179v-58zM717 134v442q0 5 -4 9t-9 4t-9 -4t-4 -9v-442q0 -4 4 -8t9 -4t9 4t4 8zM384 134v442q0 5 -4 9t-9 4t-9 -4t-4 -9v-442q0 -4 4 -8
t9 -4t9 4t4 8zM563 70v576q0 10 -8 18t-17 8q-9 -4 -13 -6.5t-8.5 -8t-4.5 -11.5v-576q0 -9 8 -17t17.5 -8t17.5 8t8 17z" />
    <glyph glyph-name="zonglan" unicode="&#xe669;" horiz-adv-x="1112" 
d="M14 585h205v205h-205v-205zM14 277h205v205h-205v-205zM14 -31h205v205h-205v-205zM373 790v-205h719v205h-719zM373 277h719v205h-719v-205zM373 -31h719v205h-719v-205z" />
    <glyph glyph-name="wenzhang" unicode="&#xe66a;" 
d="M679 797h-21h-51h-390q-25 0 -43 -17t-18 -41v-716q0 -24 18 -41t43 -17h585q25 0 43 17t18 41v569l-184 205v0zM782 593h-124v138l124 -138v0zM790 28h-560q-10 0 -10 7v693q0 7 10 7h381v-151q0 -21 14.5 -35.5t35.5 -14.5h139v-499q0 -7 -10 -7v0zM790 28zM557 544
q0 -13 -9.5 -22.5t-22.5 -9.5h-173q-13 0 -22.5 9.5t-9.5 22.5v0q0 13 9.5 22.5t22.5 9.5h173q13 0 22.5 -9.5t9.5 -22.5v0zM708 385q0 -13 -9.5 -22.5t-22.5 -9.5h-322q-13 0 -22.5 9.5t-9.5 22.5v0q0 13 9.5 22.5t22.5 9.5h322q13 0 22.5 -9.5t9.5 -22.5v0zM708 226
q0 -13 -9.5 -22.5t-22.5 -9.5h-322q-13 0 -22.5 9.5t-9.5 22.5v0q0 13 9.5 22.5t22.5 9.5h322q13 0 22.5 -9.5t9.5 -22.5v0z" />
    <glyph glyph-name="pdf" unicode="&#xe617;" 
d="M801 4zM851 552l-221 219q-8 9 -21 9h-362q-35 0 -58 -23q-25 -25 -25 -58v-630q0 -37 25 -56q25 -25 58 -25h530q35 0 58 23q25 23 25 58v461q0 13 -9 22zM625 687l141 -140v-2h-108q-13 0 -23 10l-2 2q-8 11 -8 23v107v0zM802 65v0q0 -8 -6.5 -14.5t-15.5 -6.5h-536
q-9 0 -15 6q-7 5 -7 15v637q0 9 7 14q4 7 15 7h346v-141q0 -25 20 -48v-2q23 -20 50 -20h140h2v-447v0zM704 211q-1 5 -6 10v0q-11 12 -50 12q-27 0 -61 -4q-19 11 -28 19q-34 31 -51 79q1 5 2 8q1 8 3 20t4.5 37t1.5 35q-1 4 -2 7l-1 3q-7 15 -20 15h-6q-19 0 -23 -14
q-9 -33 14 -121l-3 -8q-10 -25 -33 -70l-2 -3q-16 -32 -31 -58l-10 -5q-19 -10 -21 -11q-53 -32 -59 -61q-3 -11 5 -16l10 -5q6 -3 13 -3q34 0 89 96q68 22 137 32q56 -31 100 -31q7 0 11 1q8 2 12 8q7 10 5 28zM359 109q5 16 29 35l5 5q-21 -34 -34 -40zM496 421
q9 0 10 -28q0 -17 -7 -30q-5 15 -5 37q1 21 2 21zM472 216q5 10 9 17q10 18 17 36q11 -20 27 -34q2 -2 5 -3q-33 -7 -58 -16zM669 203v0q-2 -2 -8 -2q-11 0 -37 11q10 1 17 1q12 0 21 -2q4 -1 6 -3t2 -3t-1 -2z" />
    <glyph glyph-name="html" unicode="&#xe6ce;" 
d="M582 448h-64v64v256h-288q-13 0 -22.5 -9.5t-9.5 -22.5v-704q0 -13 9.5 -22.5t22.5 -9.5h576q14 0 23 9.5t9 22.5v416h-256zM387 181h-24v60h-72v-60h-24v144h24v-60h72v60h24v-144zM518 301h-47v-120h-24v120h-48v24h119v-24zM662 181h-24v113l-32 -113h-19l-33 113
v-113h-24v144h37l29 -99l30 99h36v-144v0zM770 181h-84v144h24v-120h60v-24zM724 653v0v0v0zM576 512h255q-2 14 -5 24.5t-9.5 20t-9.5 13.5t-13 13.5t-13 12.5l-57 57v0v0l-1 1l-19 19l-1 1v0v0l-57 57q-17 17 -31 25t-39 10v-254v0z" />
    <glyph glyph-name="renzheng1" unicode="&#xe632;" horiz-adv-x="1025" 
d="M795 831h-567q-68 0 -115.5 -47.5t-47.5 -115.5v-567q0 -68 47.5 -116t115.5 -48h567q68 0 116 48t48 116v567q0 68 -48 115.5t-116 47.5zM775 610l-283 -490q-4 -11 -10 -17q-13 -11 -30 -10.5t-28 12.5l-187 172q-11 12 -10.5 29t12.5 28.5t29 11t29 -12.5l146 -135
l261 452q8 15 24.5 19.5t31 -4t19 -25t-3.5 -30.5z" />
    <glyph glyph-name="shuangjiantouxiangyou" unicode="&#xe6aa;" 
d="M599 93l275 255q16 14 16 35t-15 35l-275 257q-14 14 -34 13t-33.5 -15.5t-13 -34t15.5 -33.5l274 -257v70l-276 -255q-14 -13 -15 -33t12.5 -34.5t33.5 -15.5t35 13v0zM215 93l275 255q16 14 16 35t-15 35l-275 257q-14 14 -34 13t-33.5 -15.5t-13 -34t15.5 -33.5
l274 -257v70l-276 -255q-14 -13 -15 -33t12.5 -34.5t33.5 -15.5t35 13v0z" />
    <glyph glyph-name="shuangjiantouxiangzuo" unicode="&#xe6ab;" 
d="M491 163l-276 255v-70l274 257q15 14 15.5 33.5t-13 34t-33.5 15.5t-34 -13l-275 -257q-15 -14 -15 -35t16 -35l275 -255q15 -14 35 -13t33.5 15.5t12.5 34.5t-15 33v0zM875 163l-276 255v-70l274 257q15 14 15.5 33.5t-13 34t-33.5 15.5t-34 -13l-275 -257
q-15 -14 -15 -35t16 -35l275 -255q15 -14 35 -13t33.5 15.5t12.5 34.5t-15 33v0z" />
    <glyph glyph-name="renzheng2" unicode="&#xe633;" 
d="M707 379q69 74 69 181q0 117 -83 199.5t-199.5 82.5t-199.5 -82.5t-83 -199.5q0 -77 38.5 -142t102.5 -101q-113 -37 -193 -142.5t-96 -231.5h574q-34 36 -58 93.5t-24 107.5q0 77 41.5 141t110.5 94zM801 332q-76 0 -128.5 -54t-52.5 -131q0 -75 54 -129.5t127 -54.5
q76 0 128.5 54t52.5 130.5t-52.5 130.5t-128.5 54zM801 49l-18 -21l-94 101l33 33l57 -62l113 141l36 -29l-127 -163v0z" />
    <glyph glyph-name="zonglan1" unicode="&#xe66b;" 
d="M320 640q0 -27 -18.5 -45.5t-45.5 -18.5h-128q-27 0 -45.5 18.5t-18.5 45.5v128q0 27 18.5 45.5t45.5 18.5h128q27 0 45.5 -18.5t18.5 -45.5v-128zM640 640q0 -27 -18.5 -45.5t-45.5 -18.5h-128q-27 0 -45.5 18.5t-18.5 45.5v128q0 27 18.5 45.5t45.5 18.5h128
q27 0 45.5 -18.5t18.5 -45.5v-128zM960 640q0 -27 -18.5 -45.5t-45.5 -18.5h-128q-27 0 -45.5 18.5t-18.5 45.5v128q0 27 18.5 45.5t45.5 18.5h128q27 0 45.5 -18.5t18.5 -45.5v-128zM320 320q0 -27 -18.5 -45.5t-45.5 -18.5h-128q-27 0 -45.5 18.5t-18.5 45.5v128
q0 27 18.5 45.5t45.5 18.5h128q27 0 45.5 -18.5t18.5 -45.5v-128zM640 320q0 -27 -18.5 -45.5t-45.5 -18.5h-128q-27 0 -45.5 18.5t-18.5 45.5v128q0 27 18.5 45.5t45.5 18.5h128q27 0 45.5 -18.5t18.5 -45.5v-128zM960 320q0 -27 -18.5 -45.5t-45.5 -18.5h-128
q-27 0 -45.5 18.5t-18.5 45.5v128q0 27 18.5 45.5t45.5 18.5h128q27 0 45.5 -18.5t18.5 -45.5v-128zM320 0q0 -27 -18.5 -45.5t-45.5 -18.5h-128q-27 0 -45.5 18.5t-18.5 45.5v128q0 27 18.5 45.5t45.5 18.5h128q27 0 45.5 -18.5t18.5 -45.5v-128zM640 0q0 -27 -18.5 -45.5
t-45.5 -18.5h-128q-27 0 -45.5 18.5t-18.5 45.5v128q0 27 18.5 45.5t45.5 18.5h128q27 0 45.5 -18.5t18.5 -45.5v-128zM960 0q0 -27 -18.5 -45.5t-45.5 -18.5h-128q-27 0 -45.5 18.5t-18.5 45.5v128q0 27 18.5 45.5t45.5 18.5h128q27 0 45.5 -18.5t18.5 -45.5v-128z" />
    <glyph glyph-name="riqi" unicode="&#xe66c;" 
d="M347 604h11q11 0 16.5 12.5t5.5 27.5v130q0 14 -6.5 24.5t-17.5 10.5h-11q-12 0 -18 -10.5t-6 -24.5v-136q0 -10 7.5 -22t18.5 -12zM696 604h11q11 0 17.5 12.5t6.5 27.5v130q0 14 -6 24.5t-17 10.5h-11q-11 0 -17.5 -10.5t-6.5 -24.5v-136q0 -9 8 -21.5t15 -12.5z
M851 750h-90v-58h90q25 0 42.5 -20t17.5 -45v-54h-768v54q0 25 18 45t42 20h89v58h-83q-48 0 -85 -41t-37 -87v-529q0 -47 37 -89.5t85 -42.5h648q44 0 75.5 41t31.5 91v529q-4 49 -35 88.5t-78 39.5zM908 99q0 -32 -15 -56t-42 -24h-642q-24 0 -44 24.5t-20 49.5v425h763
v-419v0zM644 750h-235v-58h235v58z" />
    <glyph glyph-name="arrows-copy" unicode="&#xe66d;" 
d="M487 643q11 11 26 11t26 -11l471 -471q11 -10 11 -25.5t-11 -26.5v0q-11 -11 -26.5 -11t-25.5 11l-471 471q-11 11 -11 26t11 26v0zM16 121q-11 11 -11 26.5t11 26.5l471 470q10 11 25.5 11t26.5 -11v0q11 -11 11 -26t-11 -26l-471 -471q-11 -10 -26 -10t-26 10v0z" />
    <glyph glyph-name="16" unicode="&#xe6c7;" horiz-adv-x="1028" 
d="M756 -38h-477q-77 0 -130.5 53.5t-53.5 130.5v476q0 77 53.5 130.5t130.5 53.5h474q77 0 130 -53.5t53 -130.5v-474q2 -76 -51.5 -131t-128.5 -55v0zM279 753q-55 0 -93 -38t-38 -93v-474q0 -55 38 -93t93 -38h474q55 0 93 38t38 93v474q0 55 -38 93t-93 38h-474z
M701 122h-367q-34 0 -56.5 22.5t-22.5 56.5v209q0 34 22.5 56.5t56.5 22.5h367q33 0 55.5 -22.5t22.5 -56.5v-209q0 -34 -22.5 -56.5t-55.5 -22.5zM334 436q-12 0 -19 -7t-7 -19v-209q0 -12 7 -19.5t19 -7.5h367q11 0 18.5 7.5t7.5 19.5v209q0 12 -7.5 19t-18.5 7h-367z
M281 622h472q12 0 19 -7t7 -19t-7 -19t-19 -7h-472q-11 0 -18.5 7t-7.5 19t8 19t18 7zM622 279h-210q-11 0 -18.5 -7t-7.5 -19t7.5 -19t18.5 -7h210q12 0 19 7t7 19t-7 19t-19 7zM412 332h210q12 0 19 7t7 19t-7 19t-19 7h-210q-11 0 -18.5 -7t-7.5 -19t8 -19t18 -7z" />
    <glyph glyph-name="zhuanjia1" unicode="&#xe634;" 
d="M789 283q-71 0 -121.5 -50.5t-50.5 -122t50.5 -121.5t122 -50t122 50t50.5 121.5t-50.5 122t-122.5 50.5v0zM897 167l-128 -128q-3 -3 -7.5 -3t-7.5 3l-73 72q-7 8 0.5 15.5t15.5 -0.5l64 -64l121 121q8 7 15.5 -0.5t-0.5 -15.5v0zM897 167zM621 5h-558v34q0 34 28.5 58
t69.5 38.5t82 28.5t69.5 37.5t28.5 56.5v15.5v19.5q-42 46 -56 103q-19 8 -29 35q-7 17 -5.5 40t13.5 39v0.5v0.5q-12 110 36 163q50 53 124 55q75 -2 124 -55t37 -163q0 -1 -1 -1q13 -16 14.5 -39t-6.5 -40q-9 -26 -29 -35q-13 -57 -56 -103v-36q0 -12 9.5 -26t22.5 -25.5
t26.5 -21.5t22.5 -16l10 -5q-2 -3 -3.5 -8t-4 -23.5t0.5 -41.5q1 -11 3.5 -21t5 -18.5t5.5 -15.5t6 -12.5t5 -9.5t3.5 -6l1.5 -2v0zM427 235l-29 -138l29 -31l28 31l-28 138v0zM427 235z" />
    <glyph glyph-name="zhuanjia2" unicode="&#xe635;" 
d="M755 165l-173 67q-33 13 -46 26q-12 12 -1 51q2 7 27 43.5t47.5 84t22.5 86.5q0 105 -60 179t-145 74t-145 -74t-60 -179q0 -29 13 -66t27.5 -62.5t31 -51.5t17.5 -28q7 -14 6.5 -31.5t-6.5 -24.5q-5 -5 -18.5 -11.5t-24.5 -10.5l-11 -4l-156 -69q-28 -10 -46.5 -34
t-18.5 -53v-18q0 -31 22 -49.5t55 -18.5h261h90h279q33 0 55 18.5t22 49.5v18q0 29 -18.5 53.5t-46.5 34.5v0zM743 27h-630q-12 0 -25.5 16.5t-13.5 33.5q1 32 38 45l155 68q53 15 72 41q21 28 14 68q-1 2 -2 9.5t-1.5 9t-1.5 6.5t-1.5 7t-2.5 6t-3.5 6.5t-4 6t-6.5 7.5
q-23 28 -47 75t-24 91q0 83 51 149.5t117 66.5t118 -66.5t52 -149.5q0 -24 -10 -52t-21 -46t-26.5 -41t-19.5 -28q-21 -37 -24 -62q-4 -43 9 -63q5 -8 20 -17t27 -14l12 -4l174 -68q14 -5 29.5 -21t15.5 -31q1 -15 -13.5 -32t-26.5 -17v0zM743 32zM725 463q-16 0 -24.5 4.5
t-8.5 17.5t8.5 17.5t24.5 4.5h229q16 0 24 -4.5t8 -17.5q0 -22 -34 -22h-227v0zM725 456zM774 332q-16 0 -24.5 4.5t-8.5 18t8.5 17.5t24.5 4h181q15 0 22.5 -4t7.5 -17.5t-8 -18t-23 -4.5h-180v0zM774 326zM834 209q-16 0 -24.5 4.5t-8.5 18t8.5 17.5t24.5 4h121
q16 0 24 -4t8 -17.5t-8.5 -18t-24.5 -4.5h-120v0zM834 203zM905 9zM664 9z" />
    <glyph glyph-name="youjiantou-copy" unicode="&#xe66e;" 
d="M1019 464l-506 -537l-508 536l35 34l473 -500l471 499z" />
    <glyph glyph-name="lianjie1" unicode="&#xe636;" 
d="M262 -122q-102 0 -179 77t-77 182.5t77 182.5l135 134l89 -89l-134 -135q-39 -38 -39 -89t38.5 -89.5t90 -38.5t89.5 38l179 179q39 39 39 90q0 47 -32 90l-71 64l90 89l70 -70q71 -71 71 -179q0 -112 -77 -180l-179 -179q-33 -37 -81.5 -57t-98.5 -20zM467 205l-70 64
q-77 77 -77 182.5t77 182.5l179 179q77 77 182.5 77t182.5 -77t77 -182.5t-77 -182.5l-135 -134l-89 89l134 135q39 38 39 89t-38.5 89.5t-92 38.5t-87.5 -38l-186 -173q-38 -38 -38 -89.5t38 -89.5l71 -71z" />
    <glyph glyph-name="chanpin" unicode="&#xe66f;" horiz-adv-x="1025" 
d="M541 -43l1 488l397 139v-487zM86 669l426 142l427 -142l-427 -142zM483 -43l-398 140v487l398 -139v-488z" />
    <glyph glyph-name="zhuanli" unicode="&#xe637;" 
d="M512 832q-91 0 -174 -35.5t-143 -95.5t-95.5 -143t-35.5 -174t35.5 -174t95.5 -143t143 -95.5t174 -35.5t174 35.5t143 95.5t95.5 143t35.5 174t-35.5 174t-95.5 143t-143 95.5t-174 35.5zM512 -34q-113 0 -209.5 56t-152.5 152.5t-56 209.5t56 209.5t152.5 152.5
t209.5 56t209.5 -56t152.5 -152.5t56 -209.5t-56 -209.5t-152.5 -152.5t-209.5 -56zM253 304q45 -20 97 -45l77 67h-190v25l16 42h-81v26h92l18 47h-89v25h99l18 46h31l-18 -46h161v-25h-171l-18 -47h211v-26h-222l-16 -42h198v-26l-90 -78q22 -10 47 -22l-17 -26
q-85 45 -167 82zM516 288q46 49 77 123h-75v24h81v51q-34 -3 -69 -6q-2 13 -7 26q82 6 167 17l7 -26l-72 -8v-54h77v-24h-77v-46l15 14q32 -27 64 -58l-21 -21q-21 24 -58 59v-157h-26v170q-29 -66 -69 -115q-9 22 -14 31zM728 496h25v-215h-25v215zM808 530h27v-283
q0 -43 -43 -43h-46q-2 14 -5 31q28 -3 42 -3q25 0 25 26v272z" />
    <glyph glyph-name="webxinshishihuiyitianjialianxirenicon" unicode="&#xe638;" 
d="M1011 396h-156v157q0 5 -4 9t-9 4h-39q-6 0 -9.5 -4t-3.5 -9v-157h-156q-6 0 -9.5 -3.5t-3.5 -9.5v-39q0 -5 3.5 -9t9.5 -4h156v-156q0 -5 3.5 -9t9.5 -4h39q5 0 9 4t4 9v156h156q5 0 9 4t4 9v39q0 6 -4 9.5t-9 3.5zM715 137q-26 16 -77 36t-74 32q-54 30 -60.5 61
t30.5 81q31 44 46 126.5t8 141.5q-9 67 -54.5 113.5t-115.5 55.5q-10 1 -22.5 1t-22.5 -1q-70 -9 -115.5 -55.5t-54.5 -113.5q-8 -59 7.5 -141.5t46.5 -126.5q37 -50 30.5 -81t-60.5 -61q-23 -12 -74 -32t-77 -36q-24 -14 -36 -23t-24 -27.5t-15 -42.5q-2 -24 -0.5 -36
t9.5 -18t17 -7t32 0h26h310h311h26q23 -1 32 0t17 7t9.5 18t-0.5 36q-3 33 -21 52.5t-54 40.5z" />
    <glyph glyph-name="xin" unicode="&#xe618;" 
d="M880 649h-736q-31 0 -52.5 -21.5t-21.5 -51.5v-390q0 -30 22 -51.5t52 -21.5h737q30 0 51.5 21.5t21.5 51.5v390q0 30 -22 51.5t-52 21.5zM381 304h-27q-6 12 -14 22l-80 122q-5 7 -14 24q1 -18 1 -31v-108q0 -18 2 -30h-23q2 11 2 30v134q0 17 -2 29h26q2 -6 13 -23
l80 -120q7 -11 16 -27q-1 30 -1 33v107q0 18 -2 30h23q-2 -13 -2 -30v-134q0 -17 2 -28zM551 302q-12 1 -28 1h-74h-28q2 13 2 30v134q0 15 -2 29h28h72q16 0 28 1v-21q-13 2 -28 2h-78v-65h66q15 0 29 2v-21q-13 1 -29 1h-66v-74h80q15 0 28 2v-21v0zM805 467l-40 -138
q-6 -20 -7 -25h-20q-2 13 -6 24l-34 109q-5 20 -7 29q-1 -3 -1 -4q-3 -15 -6 -25l-34 -109q-4 -14 -6 -24h-19q-1 5 -7 25l-40 138q-6 21 -10 29h25q1 -10 5 -26l30 -110q0 -2 1 -5.5t2.5 -10t2.5 -12.5q5 20 8 28l34 111q5 18 5 25h19q2 -11 7 -25l33 -111q4 -12 8 -29
l7 29l29 110q4 14 5 26h25q-6 -20 -9 -29z" />
    <glyph glyph-name="huiyi" unicode="&#xe639;" 
d="M341 454v33q0 22 12.5 39.5t33.5 25.5q11 3 24 3q44 1 133 1q31 -1 50.5 -20.5t20.5 -49.5v-33h34v19q1 26 2 31q5 23 23 37.5t43 14.5q4 1 59 1h78q25 -1 43.5 -16t24.5 -39q1 -7 1 -14v-99v-4h-6h-572q-56 0 -98 -28q-46 -30 -66 -80q-15 -38 -11 -81q4 -44 30 -80
q27 -40 71 -59q32 -14 69 -15q3 17 3 18q6 22 23.5 36t40.5 15h55h7q-47 6 -72.5 39t-21.5 73.5t34 67t69 25.5q41 0 70.5 -28t31.5 -67q3 -41 -23 -73t-70 -37h15h40q4 -1 7 -3l63 -63q3 -3 3 -5v-64l-1 -2h-5h-267q-148 2 -217 134q-29 55 -24 122q7 88 68 151
q54 56 130 69q2 0 42 5zM650 -27l-1 2q0 66 1 72q1 23 17.5 41t39.5 21q6 0 27 1h21.5h21.5q-46 6 -71.5 39t-21.5 72q4 40 33 67t69 28q39 0 68.5 -26.5t33.5 -66.5q5 -40 -21 -73.5t-71 -39.5h50q25 0 39 -7q36 -19 38 -57v-73h-273zM477.5 590q-42.5 0 -72.5 30t-30 72.5
t30 73t72.5 30t72.5 -30.5t30 -72.5t-30 -72.5t-72.5 -30zM889 692.5q0 -42.5 -30 -72.5t-73 -30t-73 30t-29.5 72.5t30.5 73t72.5 30t72.5 -30.5t30 -72.5z" />
    <glyph glyph-name="xinwen1" unicode="&#xe670;" 
d="M486 -68h-372q-40 0 -69 29t-29 70v734q0 41 29 70t69 29l795 -1q41 0 70 -29t29 -70v-506q0 -7 -4.5 -11.5t-11 -4.5t-11 4.5t-4.5 11.5v506q0 28 -20 48t-48 20l-795 1q-28 0 -47.5 -20t-19.5 -48v-734q0 -28 19.5 -48t47.5 -20h372q7 0 11.5 -4.5t4.5 -11t-4.5 -11
t-11.5 -4.5zM173 713q2 -7 14 -25l86 -129q9 -13 18 -30q-2 33 -2 36v117q0 18 -2 31h26q-2 -13 -2 -31v-147q0 -19 2 -30h-30q-6 11 -14 24l-88 133q-7 9 -16 26q2 -19 2 -34v-117q0 -20 2 -32h-25q2 11 2 32v145q0 18 -2 31h29v0zM368 575q1 -25 11 -38q13 -19 38 -19
q34 0 46 32l19 -7q-7 -14 -15 -23q-20 -19 -50 -19q-32 0 -51 21t-19 56q0 36 18.5 57t49.5 21q26 0 44 -16t22 -43q2 -20 2 -22h-115zM461 593q-2 22 -14 33q-13 13 -33 13q-26 0 -39 -24q-4 -8 -6 -22h92v0zM639 505q-2 8 -6 20l-27 80l-4 17l-6 -18l-26 -79
q-5 -12 -6 -20h-19q-2 8 -6 20l-30 95q-4 15 -11 32h26q1 -12 6 -29l20 -69q3 -9 5 -20q3 12 6 20l26 78q4 12 5 21h19q1 -9 5 -21l26 -79q1 -2 4 -13q1 -4 2 -6q4 18 4 19l21 70q5 17 6 30h25q-3 -8 -11 -33l-30 -95q-4 -13 -5 -20h-19v0zM748 -128h-41q-14 0 -23.5 10
t-9.5 23v25q0 11 -11 14l-36 15q-11 6 -18 -2l-18 -18q-9 -9 -23.5 -9t-23.5 9l-29 30q-10 9 -10 23t10 24l17 17q8 8 3 18l-15 36q-3 11 -15 11h-24q-14 0 -24 10t-10 24v41q0 14 10 23.5t24 9.5h24q12 0 15 11l14 35q6 11 -2 19l-17 18q-10 9 -10 23t10 24l29 29
q10 9 24 9t23 -9l18 -18q8 -8 17 -2l36 15q12 3 12 14v25q0 14 9.5 23.5t23.5 9.5h41q14 0 24 -9.5t10 -23.5v-25q0 -11 10 -14l36 -15q11 -5 19 2l17 18q10 9 24 9t23 -9l29 -29q10 -10 10 -24t-10 -23l-17 -18q-8 -8 -3 -18l15 -35q4 -12 15 -12h25q13 0 23 -9.5t10 -23.5
v-41q0 -14 -10 -24t-23 -10h-25q-11 0 -15 -10l-14 -36q-6 -11 2 -19l17 -17q10 -10 10 -24t-10 -23l-29 -30q-9 -9 -23 -9t-24 9l-17 18q-8 8 -18 2l-36 -14q-11 -4 -11 -15v-25q0 -14 -10 -23.5t-24 -9.5zM620 -14q10 0 18 -4l34 -14q11 -3 19 -14.5t8 -23.5v-25
q0 -8 8 -8h41q8 0 8 8v25q0 12 8.5 23.5t20.5 15.5l33 14q8 5 23 2.5t24 -10.5l17 -18q6 -5 11 1l29 29q6 5 0 11l-17 17q-9 9 -11 23t4 25l13 33q4 12 15 20t24 8h25q7 0 7 8v41q0 8 -7 8h-25q-13 0 -24 8t-15 20l-14 34q-5 10 -3 23.5t11 22.5l17 18q6 5 0 11l-29 29
q-5 5 -11 0l-17 -18q-9 -8 -23 -10t-25 3l-33 14q-12 3 -20 14.5t-8 23.5v25q0 8 -8 8h-41q-8 0 -8 -8v-25q0 -12 -8 -23.5t-20 -14.5l-34 -14q-8 -5 -23 -3t-23 10l-18 18q-5 5 -11 0l-29 -29q-6 -6 0 -11l18 -18q8 -9 10.5 -22.5t-3.5 -24.5l-14 -34q-3 -11 -14.5 -19
t-23.5 -8h-25q-8 0 -8 -8v-41q0 -8 8 -8h25q12 0 23.5 -8.5t14.5 -20.5l14 -33q6 -10 3.5 -24t-10.5 -23l-18 -17q-6 -6 0 -11l29 -30q6 -5 11 0l18 18q11 11 29 11zM727.5 37q-47.5 0 -81.5 33.5t-34 81.5t34 82t81.5 34t81.5 -34t34 -82t-34 -81.5t-81.5 -33.5zM727.5 242
q-37.5 0 -63.5 -26t-26 -63.5t26 -64t63.5 -26.5t64 26.5t26.5 64t-26.5 63.5t-64 26z" />
    <glyph glyph-name="shuangjiantouxia" unicode="&#xe6ac;" 
d="M870 382l-357 -323l-359 324q-16 16 -38.5 16t-38 -16t-15.5 -39t15 -39l397 -358q15 -16 38 -16t39 16q1 1 2 3l393 355q16 16 16.5 39t-15.5 39t-38.5 15.5t-38.5 -16.5zM474 380q15 -17 38 -17t39 17l2 2l393 355q16 16 16.5 39t-15.5 39t-38.5 15.5t-38.5 -16.5
l-357 -322l-359 323q-16 16 -38.5 16t-38 -16t-15.5 -39t15 -39z" />
    <glyph glyph-name="xinwen-copy" unicode="&#xe6ad;" 
d="M499 60h-379q-48 0 -64.5 16t-16.5 62v289.5t-1 289.5q0 30 11.5 41.5t41.5 11.5q323 -2 723 0q28 0 40 -10t11 -39q0 -53 9.5 -63t61.5 -10q27 -1 36 -12.5t9 -38.5v-220v-220q-1 -50 -24.5 -73t-73.5 -24h-384zM88 117q26 -4 27 -4q612 -1 661 -1q28 0 36 12.5t8 39.5
q-1 393 0 497q1 33 -12.5 45t-47.5 11q-51 0 -619 -1q-2 0 -53 -3v-596v0zM299 182q-9 0 -33 -0.5t-41 0t-33 2.5q-10 2 -22 13.5t-13 21.5q-2 42 -2 107.5v106.5q0 22 9.5 30.5t30.5 8.5q108 -2 210 0q21 0 30.5 -9t8.5 -30q-1 -121 0 -210q1 -23 -9.5 -32.5t-32.5 -8.5
h-103zM448.5 542q-209.5 0 -250.5 1q-6 0 -13 4t-15.5 10.5t-12.5 9.5q4 2 12 8t14.5 9.5t12.5 3.5q254 3 506 0q6 0 12.5 -3.5t14.5 -10t12 -8.5q-4 -3 -13 -9t-16 -10t-13 -4q-41 -1 -250.5 -1zM629 471q73 0 82 -1q5 0 10 -4t11.5 -10.5t9.5 -8.5q-3 -3 -9 -10.5
t-10.5 -11.5t-9.5 -5q-84 -3 -168 0q-5 1 -9.5 5t-10.5 11.5t-9 10.5q3 2 9.5 8.5t11.5 10.5t10 4q9 1 82 1zM622 296q-72 0 -81 2q-7 0 -15 9t-8 15.5t8.5 15.5t14.5 9q86 3 174 0q4 0 8.5 -3.5t10 -10t8.5 -9.5q-3 -2 -8.5 -9.5t-10 -12t-9.5 -5.5q-11 -1 -92 -1v0z
M595 183q-5 0 -16 -1t-19 -0.5t-15 2.5q-5 1 -9.5 4t-10 8.5l-8.5 8.5q3 2 9 7.5t11 8.5t9 3q54 4 106 0q5 0 9.5 -3.5t10 -9.5t8.5 -8q-3 -2 -9 -7t-11 -8.5t-9 -4.5h-56z" />
    <glyph glyph-name="qiye1" unicode="&#xe6ae;" 
d="M583 832h-446q-31 0 -52.5 -22t-21.5 -52v-748q0 -31 21.5 -52.5t52.5 -21.5h446q30 0 52 21.5t22 52.5v748q0 30 -22 52t-52 22zM583 9h-446v747h446v-747zM211 603h119v-75h-119v75zM394 603h118v-75h-118v75zM211 452h119v-74h-119v74zM394 452h118v-74h-118v74z
M211 303h119v-74h-119v74zM394 303h118v-74h-118v74zM883 588h-300v-76h300v-503h-300v-73h300q31 0 52.5 21.5t21.5 52.5v503q0 31 -21.5 53t-52.5 22zM733 452h74v-74h-74v74zM733 302h74v-74h-74v74z" />
    <glyph glyph-name="tougao" unicode="&#xe628;" horiz-adv-x="1209" 
d="M-16 539l23 -29zM-609 312zM-573 312zM326 -60q-36 0 -61.5 25.5t-25.5 61.5v714q0 36 25.5 61.5t61.5 25.5h475q8 0 13.5 -5.5t5.5 -13t-5.5 -13t-13.5 -5.5h-470q-23 0 -39 -16t-16 -39v-704q0 -23 16 -39t39 -16h730q23 0 39 16t16 39v432q0 7 5.5 12.5t13 5.5
t13 -5.5t5.5 -12.5v-437q0 -36 -25.5 -61.5t-61.5 -25.5h-740v0zM500 134q-7 0 -11 4q-7 7 -5 16l48 174l462 462q17 17 43 17q31 0 54 -23l44 -44q23 -23 23 -53q0 -26 -17 -44l-462 -462l-175 -47h-4zM523 173l134 36l-97 97zM584 327l94 -94l350 350v5l-1 2l-90 91z
M1021 764h-1l-55 -55l94 -95l55 55q10 10 9.5 24t-11.5 25l-44 43q-11 12 -26 12q-11 0 -20 -8v0z" />
    <glyph glyph-name="chengguozhuanhua" unicode="&#xe6af;" 
d="M955.5 792.5q-4.5 3.5 -9.5 0.5l-876 -448q-6 -3 -5.5 -9t6.5 -8l293 -93q5 -1 9 2l406 366l-324 -384q-3 -3 -1.5 -8t5.5 -6l326 -99q1 -1 2 -1q3 0 5 1q3 2 4 6l163 671q1 6 -3.5 9.5zM555 134l-90 27q-5 2 -8.5 -1t-3.5 -7v-170q0 -7 6 -9h3q5 0 8 4l89 142q3 4 1.5 8
t-5.5 6z" />
    <glyph glyph-name="fangkuaixiakuai" unicode="&#xe671;" 
d="M864 896h-704q-53 0 -90.5 -37.5t-37.5 -90.5v-640h960v640q0 53 -37.5 90.5t-90.5 37.5zM694 426l-158 -192q-10 -10 -24 -10t-24 10l-158 192q-10 9 -10 22.5t10 21.5q9 10 22.5 10t21.5 -10l106 -128v394q0 13 9.5 22.5t22.5 9.5t22.5 -9.5t9.5 -22.5v-392l104 126
q10 10 23 10t22 -10q10 -9 10.5 -22t-9.5 -22zM32 0q0 -53 37.5 -90.5t90.5 -37.5h704q53 0 90.5 37.5t37.5 90.5v64h-960v-64z" />
    <glyph glyph-name="fangkuaishangkuai" unicode="&#xe672;" 
d="M32 0q0 -53 37.5 -90.5t90.5 -37.5h704q53 0 90.5 37.5t37.5 90.5v640h-960v-640zM330 342l158 192q10 10 24 10t24 -10l158 -192q10 -9 10 -22.5t-10 -21.5q-9 -10 -22.5 -10t-21.5 10l-106 126v-392q0 -13 -9.5 -22.5t-22.5 -9.5t-22.5 9.5t-9.5 22.5v392l-106 -128
q-9 -10 -22.5 -10t-21.5 10q-10 11 -10 24t10 22zM864 896h-704q-53 0 -90.5 -37.5t-37.5 -90.5v-64h960v64q0 53 -37.5 90.5t-90.5 37.5z" />
    <glyph glyph-name="fangkuaiyoukuai" unicode="&#xe673;" 
d="M0 736v-704q0 -53 37.5 -90.5t90.5 -37.5h640v960h-640q-53 0 -90.5 -37.5t-37.5 -90.5zM160 416h392l-128 106q-10 9 -10 22.5t10 21.5q10 10 23 10t22 -10l192 -158q9 -10 9 -24t-9 -24l-192 -158q-10 -10 -23.5 -10t-21.5 10q-10 9 -10 22.5t10 21.5l126 104h-390
q-13 0 -22.5 9.5t-9.5 22.5q0 15 9.5 24.5t22.5 9.5zM896 864h-64v-960h64q53 0 90.5 37.5t37.5 90.5v704q0 53 -37.5 90.5t-90.5 37.5z" />
    <glyph glyph-name="fangkuaizuokuai" unicode="&#xe674;" 
d="M896 864h-640v-960h640q53 0 90.5 37.5t37.5 90.5v704q0 53 -37.5 90.5t-90.5 37.5zM864 352h-392l128 -106q10 -9 10 -22.5t-10 -21.5q-10 -10 -23 -10t-22 10l-192 158q-9 10 -9 24t9 24l192 158q10 10 23.5 10t21.5 -10q10 -9 10 -22.5t-10 -21.5l-128 -106h392
q13 0 22.5 -9.5t9.5 -22.5t-9.5 -22.5t-22.5 -9.5zM0 736v-704q0 -53 37.5 -90.5t90.5 -37.5h64v960h-64q-53 0 -90.5 -37.5t-37.5 -90.5z" />
    <glyph glyph-name="pinpa" unicode="&#xe675;" 
d="M932 655q-5 5 -12 9q-24 17 -54 17q-39 0 -67 -27.5t-28 -66.5q0 -49 40 -77q-14 -17 -29.5 -32.5t-40 -33t-38.5 -13.5q-15 4 -26.5 34.5t-17.5 73.5t-8 66t-3 40q34 5 57 31.5t23 61.5q0 40 -28 67.5t-67 27.5t-67 -27.5t-28 -67.5q0 -26 13.5 -48.5t36.5 -34.5
q-9 -23 -19.5 -46.5t-29.5 -52t-32 -28.5q-11 0 -24 16t-25.5 40.5t-19.5 41t-13 30.5q22 13 35 34.5t13 47.5q0 40 -28 67.5t-67 27.5t-67 -27.5t-28 -67.5q0 -30 18 -55t46 -34q9 -4 18 -5q-1 -8 -2.5 -21t-7 -47.5t-11.5 -61t-17 -50t-23 -26.5q-16 -4 -39 11.5t-36 30
t-24 29.5q40 28 40 78q0 39 -28 66.5t-67 27.5q-11 0 -23 -3q-44 -4 -61 -47q-11 -21 -11 -44q0 -32 20 -58q10 -16 27 -24q22 -13 48 -13q7 0 15 1q3 -25 8.5 -58t18 -91.5t30.5 -97t37 -39.5q21 -1 488 -1q17 0 34.5 28.5t30 69.5t23 82t15.5 70l6 28l1 8h9q25 0 47 12
q30 10 39 41q9 20 9 42q0 40 -29 68v0zM208 66v0q0 -24 17 -41.5t41 -17.5t41.5 17.5t17.5 41.5v0v0q0 24 -17.5 41t-41.5 17t-41 -17t-17 -41v0zM328 66v0q0 -24 17 -41.5t41 -17.5t41.5 17.5t17.5 41.5v0v0q0 24 -17.5 41t-41.5 17t-41 -17t-17 -41v0zM448 66
q0 -24 17 -41.5t41 -17.5t41.5 17.5t17.5 41.5v0v0q0 24 -17.5 41t-41.5 17t-41 -17t-17 -41v0zM568 66v0q0 -24 17 -41.5t41 -17.5t41.5 17.5t17.5 41.5v0v0q0 24 -17.5 41t-41.5 17t-41 -17t-17 -41v0zM688 66v0q0 -24 17 -41.5t41 -17.5t41.5 17.5t17.5 41.5v0v0
q0 24 -17.5 41t-41.5 17t-41 -17t-17 -41v0z" />
    <glyph glyph-name="jigou" unicode="&#xe63a;" 
d="M896 -128v704h-256v128h-256v128h-320v-960h832zM320 -64h-192v832h192v-832zM576 -64h-192v704h192v-704zM832 -64h-192v576h192v-576zM192 576h64v-64h-64v64zM192 704h64v-64h-64v64zM448 448h64v-64h-64v64zM448 576h64v-64h-64v64zM448 320h64v-64h-64v64zM704 320
h64v-64h-64v64zM704 448h64v-64h-64v64zM448 192h64v-64h-64v64zM704 192h64v-64h-64v64zM448 64h64v-64h-64v64zM704 64h64v-64h-64v64zM192 448h64v-64h-64v64zM192 320h64v-64h-64v64zM192 192h64v-64h-64v64zM192 64h64v-64h-64v64z" />
    <glyph glyph-name="shoujiwangye01" unicode="&#xe619;" 
d="M992 144l-480 480l-480 -480h960z" />
    <glyph glyph-name="hezuo" unicode="&#xe676;" 
d="M888 306l-33 35q45 42 70 89.5t30 82.5t0 70.5t-9.5 48.5t-8.5 21q-63 114 -166 136q-47 10 -92.5 -0.5t-74.5 -32.5q-38 -29 -113.5 -102t-124 -123t-57.5 -60l-24 26q202 222 287 287q86 65 194 42q28 -6 49 -13t50 -22.5t55 -44t48 -68.5q19 -36 25 -99
q16 -160 -105 -273v0zM167 302q-46 31 -77.5 67t-46.5 68t-20.5 67t-4 59.5t7.5 49t9 32.5t6 13q22 41 52 72t56.5 47t55.5 26.5t46 13t32 3.5q38 1 76 -8.5t63.5 -23t48.5 -30.5t31.5 -25.5t12.5 -13.5l-34 -29l-10.5 10.5t-27 23t-42 28.5t-53.5 21.5t-62 8.5
q-17 -1 -36 -5.5t-49 -16.5t-60 -41t-53 -70q-2 -5 -5 -13t-8 -30t-7 -44t2.5 -53t16.5 -58.5t38 -58.5t64 -56l-29 -44zM568 -112q-11 0 -26.5 2t-37.5 9.5t-33 19.5l40 41q40 -44 73 -31q32 18 25 70l-5 39l26 -10q38 -1 52 15q12 11 19.5 19.5t10 13.5t2 8.5t-2.5 5
t-6 3.5t-5 2l8 40l26 -13q9 -6 20 -3.5t19 10.5q19 17 22.5 28t-2 20t-6.5 10l10 47l32 -22q5 -3 18 2.5t24 17.5l7 7t9 10t6.5 10.5t2.5 12t-7 11.5q-53 55 -230 230q-83 -82 -122 -97q-45 -15 -85 -13t-73 17.5t-54 32.5t-28 31l32 24q1 -3 4 -7t11.5 -14.5t18.5 -19
t26.5 -16.5t34.5 -12t42.5 -1.5t51.5 12.5q16 7 53 39t69 65l19 14l19 -19l19 -18.5t48 -46t60.5 -58.5t61 -60t45.5 -46q17 -21 14.5 -59.5t-15.5 -53.5q-40 -46 -71 -49q-3 -29 -28 -56q-36 -37 -66 -39q-4 -27 -24 -50q-5 -5 -11 -8.5t-15 -6t-14.5 -3.5t-18.5 -2t-16 -2
q-2 -35 -18 -66q-11 -18 -25 -24q-1 -1 -9 -5t-14.5 -6t-12.5 -2v0zM188 155q-28 0 -58 32q-31 32 -33 53q-2 16 -0.5 22t14.5 19l117 98q16 15 35.5 21t41.5 -1t38 -31q24 -25 27 -57l-27 -25l-129 -114q-4 -3 -7 -7.5l-4 -6t-5 -2.5t-10 -1zM284 376q-7 0 -11 -4
l-142 -118q-5 -5 -4 -15q0 -6 29 -36q9 -9 21 -12t18 3l129 124q6 5 5 15q-2 13 -13 25q-18 18 -32 18v0zM257 71q-4 1 -5.5 1.5t-3.5 2t-2.5 2l-3.5 3.5t-7 6q-16 17 -25.5 29t-19.5 28t-8.5 29.5t14.5 23.5l121 105q58 55 114 -12q24 -25 27 -56q1 -11 -3.5 -17.5t-15 -14
t-14.5 -11.5l-121 -104l-6 -6l-5 -5t-4.5 -3.5t-5.5 -3t-6 -1t-8 0.5zM356 307q-3 0 -12 -9l-129 -124q-5 -5 4.5 -24.5t21.5 -31.5q13 -14 28 -14q7 0 11 4l129 124q6 5 5 15q-2 13 -13 25q-37 39 -45 35v0zM374 -25q12 1 0 5q-53 17 -68 30q-25 26 -27 55.5t21 50.5
l104 106q21 21 56 14t53 -36q24 -27 23 -47.5t-24 -42.5l-123 -101q-4 -4 -5 -12t-0.5 -14t-2.5 -10t-11 0zM445 216q-7 0 -15 -8l-126 -120q-5 -5 3 -25t19 -31q13 -14 28 -14q7 0 11 4l129 125q6 4 4 16.5t-12 22.5q-28 30 -41 30v0zM461 -93q-25 0 -37.5 5t-35.5 23
q-23 23 -26 57q0 -2 4 3q17 28 12 36q-2 3 -12 -7l118 106q22 22 53 19t56 -31q1 0 6.5 -7.5t11.5 -16.5t6 -11q10 -26 -15 -50l-124 -115q3 2 4 0q0 -4 -9 -8q-6 -3 -13 -3h1zM537 124q-7 0 -11 -4l-129 -124q-5 -5 -4 -15q0 -6 6 -17.5t12 -17.5q11 -11 33 -11q7 0 11 4
l124 122q6 5 5 15q-2 13 -13 24q-23 24 -34 24v0zM588 267l150 -149l-25 -37l-150 157zM675 353l141 -132l-27 -37l-142 141z" />
    <glyph glyph-name="xingming" unicode="&#xe6c4;" horiz-adv-x="1025" 
d="M992 565v-7v7zM815 747l-194 30l-44 -131h-130l-44 131l-194 -30q-48 -8 -77 -17.5t-54 -29.5t-35.5 -54.5t-10.5 -87.5v-414q0 -4 0.5 -10t4 -24t9.5 -34.5t19 -37t30.5 -35t46.5 -24t65 -9.5h610q29 0 53 6t40.5 16t30.5 23t22 27.5t14 29t9 27.5t4.5 23t1.5 16v6v415
q0 41 -10 72.5t-25 50t-40 32t-47 20t-55 13.5zM817 57h-610q-25 0 -43 9.5t-26 21t-13 26.5t-5.5 21t-0.5 9v0v349q0 3 0.5 7.5t4 15.5t10 19.5t20 15.5t31.5 7h654q20 0 33.5 -6.5t19.5 -16t9.5 -19t3.5 -16.5v-7v-349v0q2 -48 -31 -72q-22 -15 -57 -15zM207 471h240v-327
h-240v327zM534 689q22 73 22 88q0 21 -22 21h-44q-22 0 -22 -21q0 -7 5.5 -28.5t11.5 -40.5l5 -19h44zM774 471h-218q-17 0 -30.5 -13t-13.5 -30t13.5 -30.5t30.5 -13.5h218q16 0 29.5 13.5t13.5 30.5t-13.5 30t-29.5 13zM665 319h-109q-17 0 -30.5 -13.5t-13.5 -30.5
t13.5 -30.5t30.5 -13.5h109q16 0 29.5 13.5t13.5 30.5t-13.5 30.5t-29.5 13.5z" />
    <glyph glyph-name="gerenkongjian" unicode="&#xe677;" 
d="M998 492l-336 49l-150 302l-150 -302l-336 -49l243 -235l-57 -332l300 157l300 -157l-57 332zM660 447l-261 -237h261v-35h-343v35l260 237h-244v32h327v-32v0z" />
    <glyph glyph-name="chanpin1" unicode="&#xe678;" 
d="M152 76h620v-103h-620v103v0zM152 76zM836 795h-746q-37 0 -63.5 -26.5t-26.5 -64.5v-333q0 -38 26.5 -64.5t63.5 -26.5h416q-14 42 -14 85q0 5 1 18h-389v52h397q17 58 57 103h-455v154l720 -1v-76q59 -17 104 -58v147q0 38 -26.5 64.5t-64.5 26.5v0zM836 795zM530 231
h-248v-103h360v4q-71 32 -112 99v0zM530 231zM750 160q-85 0 -145.5 60.5t-60.5 146t60.5 146t145.5 60.5t145.5 -60.5t60.5 -146t-60.5 -146t-145.5 -60.5v0zM750 480q-47 0 -80.5 -33.5t-33.5 -80.5t33.5 -80t80.5 -33t80.5 33t33.5 80t-33.5 80.5t-80.5 33.5v0zM750 480z
M871 291l153 -163l-75 -70l-153 162l75 71v0zM871 291z" />
    <glyph glyph-name="iconfontdialog" unicode="&#xe679;" horiz-adv-x="1062" 
d="M715 431q0 -22 16 -37.5t38.5 -15.5t38 15.5t15.5 38t-15.5 38t-38 15.5t-38.5 -15.5t-16 -38.5v0zM477 431q0 -22 15.5 -37.5t38 -15.5t38 15.5t15.5 38t-15.5 38t-38 15.5t-38 -15.5t-15.5 -38.5v0zM238 431q0 -22 15.5 -37.5t38 -15.5t38.5 15.5t16 38t-16 38
t-38.5 15.5t-38 -15.5t-15.5 -38.5v0zM529 66q-75 0 -145 22l-36 -31h2l-64 -46l-1 83v37q-84 51 -133 129.5t-49 169.5q0 99 57 182.5t155 132.5t213.5 49t214 -49t155.5 -132.5t57 -182.5t-57 -183t-155.5 -132.5t-213.5 -48.5v0v0zM529 834q-127 0 -234.5 -54t-170 -147
t-62.5 -203q0 -96 49 -180t134 -141v-170l152 103q64 -16 132 -16q126 0 233.5 54t170 147t62.5 203t-62.5 203t-170 147t-233.5 54v0z" />
    <glyph glyph-name="guanyuwomen1" unicode="&#xe6b0;" 
d="M572 304q-16 -15 -29 -25q6 32 30 113q21 69 21 80q0 15 -11 24q-25 21 -76 -8q-27 -16 -60 -52l-11 -12l37 -29l10 9q10 10 23 21q-43 -141 -43 -180q0 -18 10 -30q11 -11 29 -11q16 0 39 13q21 11 64 53l12 11l-34 34l-11 -11v0zM932 562q-35 82 -98 145t-144 98
q-85 35 -178 35t-177 -35q-82 -35 -145 -98.5t-98 -144.5q-36 -85 -36 -178t36 -178q34 -81 98 -145q63 -63 145 -97q84 -36 177 -36t177 36q82 34 145 97q63 64 98 145q36 85 36 178t-36 178v0zM910 384q0 -108 -53.5 -199.5t-145 -145t-199.5 -53.5t-199.5 53.5t-145 145
t-53.5 199.5t53.5 200t145 145t199.5 53t199.5 -53t145 -145t53.5 -200v0zM560 620q-13 -14 -13 -34q0 -17 11 -28q10 -11 26 -11q19 0 33 15q13 15 13 34q0 17 -10 28q-12 12 -30 10.5t-30 -14.5v0z" />
    <glyph glyph-name="yueduquanwen" unicode="&#xe67a;" 
d="M1001 50q-10 -15 -28 -15q-10 0 -18 5l-131 88q-30 -41 -75 -64.5t-96 -23.5q-89 0 -152 64.5t-63 155.5t63 155.5t152 64.5t152 -64.5t63 -155.5q0 -37 -13 -73l136 -90q11 -8 14 -21.5t-4 -25.5zM653 413q-62 0 -105.5 -45t-43.5 -108t43.5 -108t105.5 -45t105.5 45
t43.5 108t-43.5 108t-105.5 45zM191 285q-13 0 -22.5 10t-9.5 24t9.5 23.5t22.5 9.5h220q-12 -32 -15 -67h-205zM159 657.5q0 13.5 9.5 23.5t22.5 10h462q13 0 23 -10t10 -24t-9.5 -23.5t-23.5 -9.5h-462q-13 0 -22.5 10t-9.5 23.5zM191 454q-13 0 -22.5 10t-9.5 24t9.5 24
t22.5 10h420q-77 -13 -134 -68h-286zM761 767q0 26 -18 44t-42 18h-557q-25 0 -42.5 -18t-17.5 -44v-766q0 -26 17.5 -44t42.5 -18h557q24 0 42 18t18 44v0v18q36 17 65 45v-63q0 -53 -37 -91t-88 -38h-557q-52 0 -89 38t-37 91v766q0 53 37 91t89 38h556q52 0 89 -38
t37 -91v-310q-29 27 -65 44v266z" />
    <glyph glyph-name="erweima2" unicode="&#xe67b;" 
d="M190 706h70v-70h-70v70zM386 832h-322v-322h126v-56h70v56h126v70h56v56h-56v196zM316 580h-182v182h182v-182zM190 132h70v-70h-70v70zM764 706h70v-70h-70v70zM512 390v-76h70v70h56v70h-56v56h-70v-56v-64zM512 134v-72h70v72v54h56v70h-58h-68v-60v-64zM582 62h56
v-56h-56v56zM442 6v-70h74h66v70h-66h-74zM708 188h-70v-54v-72h70h56v70h-56v56zM764 -64h72h64h60v70h-60h-66v56h-70v-56v-70zM960 384v70h-60h-66v-70h66h60zM890 132h70v-70h-70v70zM442 580h70v-70h-70v70zM764 454v56h196v322h-322v-70h-58h-68v-56h68h58v-70h-56
v-56h56v-70h70v-56h56zM708 762h182v-182h-182v182zM708 314h56v-56h-56v56zM834 188h-70v-56h72h54v66v60h70v56h-60h-66v-52v-74zM442 706h70v-70h-70v70zM260 384h56v-70h-56v70zM442 454h-54h-72v-70h70v-70h56v76v64zM386 62v126h56v70h-54h-198v68v58h-58h-68v-70h70
v-56h-70v-322h322v70h56v56h-56zM316 6h-182v182h182v-182zM442 314h70v-56h-70v56zM638 384h70v-70h-70v70zM764 384h70v-70h-70v70z" />
    <glyph glyph-name="jieduzhong" unicode="&#xe67c;" 
d="M140 335q-18 0 -31 13.5t-13 32.5v59q0 19 13 32t31 13h573q7 0 13 -2q-31 -4 -60 -16t-52 -31.5t-41 -45t-28 -55.5h-405v0zM533 285v-12v-11q0 -35 10 -67t28 -58h-431q-18 0 -31 13t-13 32v59q0 18 13 31t31 13h393v0zM237 535q-18 0 -31 13t-13 32v55q0 18 13 31.5
t31 13.5h595q18 0 31 -13.5t13 -31.5v-55q0 -19 -13 -32t-31 -13h-595v0zM756 434q35 0 66.5 -14t55 -37t37 -54.5t13.5 -67.5t-13.5 -67.5t-37 -55t-55 -37t-66.5 -13.5t-66 13.5t-54.5 37t-37.5 55t-14 67.5t14 67.5t37.5 54.5t54.5 37t66 14v0zM853 233q8 0 13 8t5 19.5
t-5 19t-13 7.5h-73v69q0 6 -7 11t-18 5q-13 0 -19 -5t-6 -11v-87v-4v-4q0 -12 5 -20t13 -8h105v0zM853 233z" />
    <glyph glyph-name="duigou1" unicode="&#xe6b1;" 
d="M512 896q-138 0 -256 -69t-187 -187t-69 -256t69 -256t187 -187t256 -69t256 69t187 187t69 256t-69 256t-187 187t-256 69zM845 531l-429 -429l-237 237q-19 19 -19 45t19 45t45 19t45 -19l147 -147l339 339q19 19 45 19t45 -19t19 -45t-19 -45z" />
    <glyph glyph-name="zhuanjiajieda" unicode="&#xe67d;" 
d="M516 826q99 0 169 -70.5t70 -169.5q0 -98 -69 -168v0h-1l-1 -2q6 -6 26.5 -26t30.5 -30.5t25 -27.5t25 -33.5t17 -33.5v0q19 -47 20 -97h76q15 0 25 -10t10 -24.5t-10 -25t-25 -10.5h-24v-112q0 -14 -10 -24.5t-24.5 -10.5t-24.5 10.5t-10 24.5v112h-589v-112
q0 -14 -10 -24.5t-24.5 -10.5t-24.5 10.5t-10 24.5v112h-25q-14 0 -24 10.5t-10 25t10 24.5t24 10h77q1 51 19 97q8 17 18 33.5t25 33.5t24.5 27.5t30 30.5t27.5 26l-1 2v0q-71 69 -71 168t70.5 169.5t168.5 70.5v0zM758 168v0q-1 38 -14 70q-8 18 -23.5 39t-28 33.5t-36 35
t-29.5 29.5q-52 -27 -111 -27t-110 27q-7 -7 -30.5 -29.5t-35.5 -35t-28 -33.5t-23 -39q-13 -33 -14 -70h483v0zM516 756v0q-69 0 -119 -50t-50 -120t50 -119.5t119 -49.5q70 0 120 49.5t50 119.5t-50 120t-120 50v0z" />
    <glyph glyph-name="erweima3" unicode="&#xe67e;" 
d="M424 781v0h-220q-34 0 -58.5 -24t-24.5 -58v0v-208q0 -3 1 -7q5 -29 28 -49t54 -20h220v0q29 2 50.5 21.5t26.5 47.5q1 4 1 7v208v0q0 33 -23 56.5t-55 25.5zM458 503q0 -19 -13 -31.5t-31 -12.5h-206q-18 0 -30.5 12.5t-12.5 31.5v191q0 18 12.5 31t30.5 13h206
q18 0 31 -13t13 -31v-191zM902 701q0 32 -22 55t-54 25v0h-192q-33 0 -57 -23.5t-24 -56.5v0v-203q0 -3 1 -6q5 -29 27.5 -48.5t52.5 -19.5h192v0q28 2 49 21t26 47q1 3 1 6v203v0zM859 509q0 -17 -12.5 -29.5t-29.5 -12.5h-178q-18 0 -30.5 12.5t-12.5 29.5v187
q0 18 12.5 30.5t30.5 12.5h178q17 0 29.5 -12.5t12.5 -30.5v-187zM416 356v0h-214q-34 0 -57.5 -23.5t-23.5 -56.5v0v-202q0 -3 1 -7q5 -29 27.5 -48t52.5 -19h214v0q28 2 49 21t25 46q2 4 2 7v202v0q-1 32 -23 55t-53 25zM449 85q0 -18 -12.5 -30.5t-30.5 -12.5h-193v0h-7
q-18 0 -30.5 12.5t-12.5 30.5v186q0 18 12.5 30.5t30.5 12.5h200q18 0 30.5 -12.5t12.5 -30.5v-186zM721 143q-11 0 -19 -7.5t-8 -18.5v-51q0 -11 8 -18.5t19 -7.5t19 7.5t8 18.5v51q0 11 -8 18.5t-19 7.5zM835 169q-11 0 -19 -7.5t-8 -18.5v-77q0 -11 8 -18.5t19 -7.5
t18.5 7.5t7.5 18.5v77q0 11 -7.5 18.5t-18.5 7.5zM835 323q-11 0 -19 -7.5t-8 -18.5v-51q0 -11 8 -18.5t19 -7.5t18.5 7.5t7.5 18.5v51q0 11 -7.5 18.5t-18.5 7.5zM721 323q-11 0 -19 -7.5t-8 -18.5v-103q0 -10 8 -17.5t19 -7.5t19 7.5t8 17.5v103q0 11 -8 18.5t-19 7.5z
M606 194q-11 0 -19 -7.5t-8 -17.5v-103q0 -11 8 -18.5t19 -7.5t19 7.5t8 18.5v103q0 10 -8 17.5t-19 7.5zM606 323q-11 0 -19 -7.5t-8 -18.5v-26q0 -10 8 -17.5t19 -7.5t19 7.5t8 17.5v26q0 11 -8 18.5t-19 7.5z" />
    </font>
</defs>
</svg>
